[Login] or [Signup]

First Cams

Xvid/x264



Non-English

Loading...

22 July 2018 Movies 720p HDRip x264 5.1 ESubs with Sample ☻rDX☻


Complete Name :22 July 2018 Movies 720p HDRip x264 5.1 ESubs with Sample ☻rDX☻
Download torrent:    22 July 2018 Movies 720p HDRip x264 5.1 ESubs with Sample ☻rDX☻.torrent
Info Hash:37df3e9561e8f12097d4c4c98d427d1ea2b4f57c
Category:Movies  > HD
Torrent language:English  
Seeds | Leech:74 | 33
Complete: 427
Health:
Total Size:1.48 GB
Downloaded:10 Times
Added By:      teamrdx
Date Added:11-10-2018 06:45:am | Last Edit:  12-10-2018 07:47:pm

 

Main Technical Comments
22 July 2018 Movies 720p HDRip x264 5.1 ESubs with Sample ☻rDX☻

:clapSCREEN SHOTS & POSTER::clap

https://iphonehosting.eu/2018/10/television/index.html
https://iphonehosting.eu/2018/10/television/1.html
https://iphonehosting.eu/2018/10/television/2.html
https://iphonehosting.eu/2018/10/television/3.html
https://iphonehosting.eu/2018/10/television/4.html
https://iphonehosting.eu/2018/10/television/5.html
https://iphonehosting.eu/2018/10/television/6.html
https://iphonehosting.eu/2018/10/television/7.html
https://iphonehosting.eu/2018/10/television/8.html
https://iphonehosting.eu/2018/10/television/9.html
https://iphonehosting.eu/2018/10/television/10.html


File size                                : 1.47 GiB
Duration                                 : 2 h 24 min
Overall bit rate                         : 1 462 kb/s
Movie name                               : 22 July 2018 Movies 720p HDRip x264 5.1 ESubs ☻rDX☻

Video
ID                                       : 2
Format                                   : AVC
Format/Info                              : Advanced Video Codec
Format profile                           : [email protected]
Format settings, CABAC                   : Yes
Format settings, ReFrames                : 4 frames
Codec ID                                 : V_MPEG4/ISO/AVC
Duration                                 : 2 h 24 min
Bit rate                                 : 1 100 kb/s
Width                                    : 1 280 pixels
Height                                   : 692 pixels
Display aspect ratio                     : 1.85:1
Frame rate mode                          : Constant
Frame rate                               : 24.000 FPS
Color space                              : YUV
Chroma subsampling                       : 4:2:0
Bit depth                                : 8 bits
Scan type                                : Progressive
Bits/(Pixel*Frame)                       : 0.052
Stream size                              : 1.05 GiB (72%)
Title                                    : ☻rDX☻
Writing library                          : x264

Audio
ID                                       : 1
Format                                   : AC-3
Format/Info                              : Audio Coding 3
Mode extension                           : CM (complete main)
Format settings, Endianness              : Big
Codec ID                                 : A_AC3
Duration                                 : 2 h 24 min
Bit rate mode                            : Constant
Bit rate                                 : 384 kb/s
Channel(s)                               : 6 channels
Channel positions                        : Front: L C R, Side: L R, LFE
Sampling rate                            : 48.0 kHz
Frame rate                               : 31.250 FPS (1536 spf)
Bit depth                                : 16 bits
Compression mode                         : Lossy
Stream size                              : 396 MiB (26%)
Title                                    : ☻rDX☻
Default                                  : Yes
Forced                                   : No

Text
ID                                       : 3
Format                                   : UTF-8
Codec ID                                 : S_TEXT/UTF8
Codec ID/Info                            : UTF-8 Plain Text
Title                                    : ☻rDX☻
Language                                 : English
Default                                  : Yes
Forced                                   : No

https://www.imdb.com/title/tt7280898/
........................................................................


Loading...


Trackers:
udp://tracker.coppersurfer.tk:6969/announce

22 July 2018 Movies 720p HDRip x264 5.1 ESubs with Sample ☻rDX☻
Files
22 July 2018 Movies 720p HDRip x264 5.1 ESubs ☻rDX☻.mkv1.47 GB
Sample ~ 22 July 2018 Movies 720p HDRip x264 5.1 ESubs ☻rDX☻.mkv14.92 MB


Similar Torrents
Type Name Size Added S L
Divx/Xvid 22.July.2018.HDRip.XviD.AC3-EVO
1.55 GB 2018-10-10 13:38:28 3641 1170
Video PublicBang - Lexi Luna (Lexi Having Wild Fun Aroun...
576.55 MB 2018-07-22 17:14:33 246 80
Video TrueAnal - Kagney Linn Karter (Tapping KagneyS Ass...
271.56 MB 2018-07-23 14:04:15 192 7
HD 22 July 2018 1080p WEBRip DD 5.1 x264 ESub [MW]
2.53 GB 2018-10-11 13:47:34 148 46
Video NubileFilms - Emma Hix (Sexual Impulses) NEW 22 Ju...
291.38 MB 2018-07-22 17:14:15 140 65
h.264/x264 22.July.2018.720p.NF.WEB-DL.DD+5.1.H264-CMRG[EtHD]
3.59 GB 2018-10-10 09:31:21 121 50
Video BrazzersExxtra - Kira Noir (Kira Finds Her Motivat...
435.83 MB 2018-07-22 17:12:50 108 27
Video EvilAngel - Jenny Blighe (Cam Girl Jennys First Pr...
385.99 MB 2018-07-23 14:00:52 103 23
Video FakeTaxi - Stacey Saran (Sex addict fucks in taxi)...
412.23 MB 2018-07-23 14:01:08 100 4
HD 22 July 2018 Movies HDRip x264 AAC with Sample ☻...
787.93 MB 2018-10-10 14:21:05 97 56

Comments:
No comments still posted
Loading...
Powered by TT | Page Generated In 0.043056 secs.
| RSS Feed | Feed Info