[Login] or [Signup]

First Cams

Xvid/x264



Non-English

Loading...

Penguin.Rescue.2018.HDRip.XviD.AC3.With.Sample.LLG


Complete Name :Penguin.Rescue.2018.HDRip.XviD.AC3.With.Sample.LLG
Download torrent:    Penguin.Rescue.2018.HDRip.XviD.AC3.With.Sample.LLG.torrent
Info Hash:61ea4492a8bff43a3b5ef5b7861744c0755b1be1
Category:Movies  > Divx/Xvid
Torrent language:English  
Seeds | Leech:4 | 3
Complete: 43
Health:
Total Size:796.01 MB
Downloaded:10 Times
Added By:      LifeLongg
Date Added:10-10-2018 07:48:pm | Last Edit:  12-10-2018 11:38:am

 

Main Technical Comments


******************************Thumbnail:**********************



******************************Screenshots:********************

Screenshot 1

Screenshot 2

Screenshot 3

Screenshot 4

Screenshot 5

Screenshot 6

Screenshot 7

Screenshot 8

Screenshot 9

Screenshot 0

************************************************************

Penguin.Rescue.2018.HDRip.XviD.AC3.With.Sample.LLG.mp4
Format                                   : MPEG-4
Format profile                           : Base Media
Codec ID                                 : isom (isom/iso2/avc1/mp41)
File size                                : 783 MiB
Duration                                 : 1 h 10 min
Overall bit rate                         : 1 558 kb/s


Video
ID                                       : 1
Format                                   : AVC
Format/Info                              : Advanced Video Codec
Format profile                           : [email protected]
Format settings                          : CABAC / 4 Ref Frames
Format settings, CABAC                   : Yes
Format settings, RefFrames               : 4 frames
Codec ID                                 : avc1
Codec ID/Info                            : Advanced Video Coding
Duration                                 : 1 h 10 min
Bit rate                                 : 1 426 kb/s
Nominal bit rate                         : 1 500 kb/s
Width                                    : 720 pixels
Height                                   : 400 pixels
Display aspect ratio                     : 16:9
Frame rate mode                          : Constant
Frame rate                               : 23.976 (23976/1000) FPS
Color space                              : YUV
Chroma subsampling                       : 4:2:0
Bit depth                                : 8 bits
Scan type                                : Progressive
Bits/(Pixel*Frame)                       : 0.206
Stream size                              : 716 MiB (91%)


Audio
ID                                       : 2
Format                                   : AC-3
Format/Info                              : Audio Coding 3
Commercial name                          : Dolby Digital
Codec ID                                 : ac-3
Duration                                 : 1 h 10 min
Bit rate mode                            : Constant
Bit rate                                 : 128 kb/s
Channel(s)                               : 2 channels
Channel layout                           : L R
Sampling rate                            : 48.0 kHz
Frame rate                               : 31.250 FPS (1536 SPF)
Bit depth                                : 16 bits
Compression mode                         : Lossy
Stream size                              : 64.3 MiB (8%)
Title                                    : Stereo
Language                                 : English
Service kind                             : Complete Main
Default                                  : Yes


********************************************************

........................................................................


Loading...


Trackers:
udp://tracker.openbittorrent.com:80/announce

Penguin.Rescue.2018.HDRip.XviD.AC3.With.Sample.LLG
Files
Penguin.Rescue.2018.HDRip.XviD.AC3.With.Sample.LLG.mp4783.38 MB
SAMPLE.mkv12.63 MB


Similar Torrents
Type Name Size Added S L
Divx/Xvid Penguin.Rescue.2018.HDRip.XviD.AC3-EVO
1.18 GB 2018-10-07 16:44:08 941 328
HD Penguin Rescue 2018 Movies 720p HDRip x264 AAC wit...
774.62 MB 2018-10-08 08:27:40 140 68
HD Penguin.Rescue.2018.1080p.WEB-DL.H264.AC3-EVO[EtHD...
2.62 GB 2018-10-07 16:18:01 50 46
h.264/x264 Penguin.Rescue.2018.HDRip.XviD.AC3-EVO[EtMovies]
1.18 GB 2018-10-07 16:30:23 48 12

Comments:
No comments still posted
Loading...
Powered by TT | Page Generated In 0.042603 secs.
| RSS Feed | Feed Info