[Login] or [Signup]

First Cams

Xvid/x264



Non-English

Loading...

22 Chaser 2018 Movies HDRip x264 5.1 with Sample ☻rDX☻


Complete Name :22 Chaser 2018 Movies HDRip x264 5.1 with Sample ☻rDX☻
Download torrent:    22 Chaser 2018 Movies HDRip x264 5.1 with Sample ☻rDX☻.torrent
Info Hash:d986a73ea5bc67ae135d88e4687f3a61e07f811d
Category:Movies  > HD
Torrent language:English  
Seeds | Leech:55 | 14
Complete: 684
Health:
Total Size:901.85 MB
Downloaded:11 Times
Added By:      teamrdx
Date Added:10-10-2018 06:25:pm | Last Edit:  12-10-2018 09:40:am

 

IMDB
22 Chaser
22 Chaser Released 01 Jul 2018

Genre Crime, Drama

Director Rafal Sokolowski

Writer Jeremy Boxen

Actors Brian J. Smith, Kaniehtiio Horn, Raoul Max Trujillo, Aaron Ashmore

Plot One of the city's last decent tow truck drivers risks everything on a desperate quest to become king of the road and provide for his struggling family.

Link http://www.imdb.com/title/tt5130442

Last Updated 21-10-2018 12:59:45
5.9

Votes 35

Main Technical Comments
22 Chaser 2018 Movies HDRip x264 5.1 with Sample ☻rDX☻

:clapSCREEN SHOTS & POSTER::clap

https://iphonehosting.eu/2018/10/treatment/index.html
https://iphonehosting.eu/2018/10/treatment/1.html
https://iphonehosting.eu/2018/10/treatment/2.html
https://iphonehosting.eu/2018/10/treatment/3.html
https://iphonehosting.eu/2018/10/treatment/4.html
https://iphonehosting.eu/2018/10/treatment/5.html
https://iphonehosting.eu/2018/10/treatment/6.html
https://iphonehosting.eu/2018/10/treatment/7.html
https://iphonehosting.eu/2018/10/treatment/8.html
https://iphonehosting.eu/2018/10/treatment/9.html
https://iphonehosting.eu/2018/10/treatment/10.html


File size                                : 893 MiB
Duration                                 : 1 h 26 min
Overall bit rate mode                    : Constant
Overall bit rate                         : 1 436 kb/s
Movie name                               : 22 Chaser 2018 Movies HDRip x264 5.1 ☻rDX☻

Video
ID                                       : 2
Format                                   : AVC
Format/Info                              : Advanced Video Codec
Format profile                           : [email protected]
Format settings, CABAC                   : Yes
Format settings, ReFrames                : 2 frames
Format settings, GOP                     : M=1, N=12
Codec ID                                 : V_MPEG4/ISO/AVC
Duration                                 : 1 h 26 min
Bit rate mode                            : Constant
Bit rate                                 : 1 053 kb/s
Width                                    : 720 pixels
Height                                   : 400 pixels
Display aspect ratio                     : 16:9
Frame rate mode                          : Constant
Frame rate                               : 23.976 FPS
Color space                              : YUV
Chroma subsampling                       : 4:2:0
Bit depth                                : 8 bits
Scan type                                : Progressive
Bits/(Pixel*Frame)                       : 0.152
Stream size                              : 636 MiB (71%)
Title                                    : ☻rDX☻
Default                                  : Yes
Forced                                   : No

Audio
ID                                       : 1
Format                                   : AC-3
Format/Info                              : Audio Coding 3
Mode extension                           : CM (complete main)
Format settings, Endianness              : Big
Codec ID                                 : A_AC3
Duration                                 : 1 h 26 min
Bit rate mode                            : Constant
Bit rate                                 : 384 kb/s
Channel(s)                               : 6 channels
Channel positions                        : Front: L C R, Side: L R, LFE
Sampling rate                            : 48.0 kHz
Frame rate                               : 31.250 FPS (1536 spf)
Bit depth                                : 16 bits
Compression mode                         : Lossy
Stream size                              : 239 MiB (27%)
Title                                    : ☻rDX☻
Default                                  : Yes
Forced                                   : No

https://www.imdb.com/title/tt5130442/
........................................................................


Loading...


Trackers:
udp://tracker.coppersurfer.tk:6969/announce

22 Chaser 2018 Movies HDRip x264 5.1 with Sample ☻rDX☻
Files
22 Chaser 2018 Movies HDRip x264 5.1 ☻rDX☻.mkv892.80 MB
Sample ~ 22 Chaser 2018 Movies HDRip x264 5.1 ☻rDX☻.mkv9.05 MB


Similar Torrents
Type Name Size Added S L
Divx/Xvid 22.Chaser.2018.HDRip.XviD.AC3-EVO
1.29 GB 2018-10-10 14:01:46 2225 834
HD 22 Chaser 2018 Movies HDRip x264 AAC with Sample ...
705.96 MB 2018-10-10 17:18:44 124 73
HD 22.Chaser.2018.1080p.WEB-DL.H264.AC3-EVO[EtHD]
3.39 GB 2018-10-10 13:57:51 88 51
h.264/x264 22.Chaser.2018.HDRip.XviD.AC3-EVO[EtMovies]
1.29 GB 2018-10-10 13:40:54 49 22
HD 22 Chaser 2018 1080p WEB-DL DD 5.1 x264 [MW]
1.54 GB 2018-10-11 12:20:38 35 24
HD 22 Chaser (2018) English HDRip 720p - x264 AAC 700...
751.16 MB 2018-10-11 14:42:10 2 14
h.264/x264 22.Chaser.2018.HDRip.AC3.X264-CMRG[EtMovies]
1.31 GB 2018-10-10 14:49:41 1 4

Comments:
No comments still posted
Loading...
Powered by TT | Page Generated In 0.563655 secs.
| RSS Feed | Feed Info