[Login] or [Signup]

First Cams

Xvid/x264



Non-English

Loading...

22 July 2018 Movies HDRip x264 AAC with Sample ☻rDX☻


Complete Name :22 July 2018 Movies HDRip x264 AAC with Sample ☻rDX☻
Download torrent:    22 July 2018 Movies HDRip x264 AAC with Sample ☻rDX☻.torrent
Info Hash:44914bbd412dcf2b3a3cc2543b5fb6695efd4cb5
Category:Movies  > HD
Torrent language:English  
Seeds | Leech:97 | 56
Complete: 690
Health:
Total Size:787.93 MB
Downloaded:11 Times
Added By:      teamrdx
Date Added:10-10-2018 03:21:pm | Last Edit:  12-10-2018 06:40:am

 

Main Technical Comments
22 July 2018 Movies HDRip x264 AAC with Sample ☻rDX☻

:clapSCREEN SHOTS & POSTER::clap

https://iphonehosting.eu/2018/10/tshirt/index.html
https://iphonehosting.eu/2018/10/tshirt/1.html
https://iphonehosting.eu/2018/10/tshirt/2.html
https://iphonehosting.eu/2018/10/tshirt/3.html
https://iphonehosting.eu/2018/10/tshirt/4.html
https://iphonehosting.eu/2018/10/tshirt/5.html
https://iphonehosting.eu/2018/10/tshirt/6.html
https://iphonehosting.eu/2018/10/tshirt/7.html
https://iphonehosting.eu/2018/10/tshirt/8.html
https://iphonehosting.eu/2018/10/tshirt/9.html
https://iphonehosting.eu/2018/10/tshirt/10.html


File size                                : 780 MiB
Duration                                 : 2 h 24 min
Overall bit rate mode                    : Constant
Overall bit rate                         : 757 kb/s
Movie name                               : 22 July 2018 Movies HDRip x264 AAC ☻rDX☻

Video
ID                                       : 2
Format                                   : AVC
Format/Info                              : Advanced Video Codec
Format profile                           : [email protected]
Format settings, CABAC                   : Yes
Format settings, ReFrames                : 2 frames
Format settings, GOP                     : M=1, N=12
Codec ID                                 : V_MPEG4/ISO/AVC
Duration                                 : 2 h 24 min
Bit rate mode                            : Constant
Bit rate                                 : 694 kb/s
Width                                    : 720 pixels
Height                                   : 384 pixels
Display aspect ratio                     : 1.85:1
Frame rate mode                          : Constant
Frame rate                               : 24.000 FPS
Color space                              : YUV
Chroma subsampling                       : 4:2:0
Bit depth                                : 8 bits
Scan type                                : Progressive
Bits/(Pixel*Frame)                       : 0.105
Stream size                              : 698 MiB (90%)
Title                                    : ☻rDX☻
Default                                  : Yes
Forced                                   : No

Audio
ID                                       : 1
Format                                   : MPEG Audio
Format version                           : Version 1
Format profile                           : Layer 3
Mode                                     : Joint stereo
Mode extension                           : MS Stereo
Codec ID                                 : A_MPEG/L3
Codec ID/Hint                            : MP3
Duration                                 : 2 h 24 min
Bit rate mode                            : Constant
Bit rate                                 : 64.0 kb/s
Channel(s)                               : 2 channels
Sampling rate                            : 44.1 kHz
Compression mode                         : Lossy
Stream size                              : 65.9 MiB (8%)
Title                                    : ☻rDX☻
Default                                  : Yes
Forced                                   : No

https://www.imdb.com/title/tt7280898/
........................................................................


Loading...


Trackers:
udp://tracker.coppersurfer.tk:6969/announce

22 July 2018 Movies HDRip x264 AAC with Sample ☻rDX☻
Files
22 July 2018 Movies HDRip x264 AAC ☻rDX☻.mkv779.92 MB
Sample ~ 22 July 2018 Movies HDRip x264 AAC ☻rDX☻.mkv8.01 MB


Similar Torrents
Type Name Size Added S L
Divx/Xvid 22.July.2018.HDRip.XviD.AC3-EVO
1.55 GB 2018-10-10 13:38:28 3641 1170
Video PublicBang - Lexi Luna (Lexi Having Wild Fun Aroun...
576.55 MB 2018-07-22 17:14:33 246 80
Video TrueAnal - Kagney Linn Karter (Tapping KagneyS Ass...
271.56 MB 2018-07-23 14:04:15 192 7
HD 22 July 2018 1080p WEBRip DD 5.1 x264 ESub [MW]
2.53 GB 2018-10-11 13:47:34 148 46
Video NubileFilms - Emma Hix (Sexual Impulses) NEW 22 Ju...
291.38 MB 2018-07-22 17:14:15 140 65
h.264/x264 22.July.2018.720p.NF.WEB-DL.DD+5.1.H264-CMRG[EtHD]
3.59 GB 2018-10-10 09:31:21 121 50
Video BrazzersExxtra - Kira Noir (Kira Finds Her Motivat...
435.83 MB 2018-07-22 17:12:50 108 27
Video EvilAngel - Jenny Blighe (Cam Girl Jennys First Pr...
385.99 MB 2018-07-23 14:00:52 103 23
Video FakeTaxi - Stacey Saran (Sex addict fucks in taxi)...
412.23 MB 2018-07-23 14:01:08 100 4
Video TeenyBlack - Lola Chanel (Face Down Ass Up) NEW 22...
423.25 MB 2018-07-22 17:15:37 88 32

Comments:
No comments still posted
Loading...
Powered by TT | Page Generated In 0.042004 secs.
| RSS Feed | Feed Info