[Login] or [Signup]

First Cams

Xvid/x264



Non-English

Loading...

18+ The House Of Violent Desire 2018 UNCENSORED Movies 720p HDRip x264 5.1 ESubs with Sample ☻rDX...


Complete Name :18+ The House Of Violent Desire 2018 UNCENSORED Movies 720p HDRip x264 5.1 ESubs with Sample ☻rDX☻
Download torrent:    18+ The House Of Violent Desire 2018 UNCENSORED Movies 720p HDRip x264 5.1 ESubs with Sample ☻rDX....torrent
Info Hash:f065f016606b8f1ec8ae081ed4f5bc2965ff2520
Category:Movies  > HD
Torrent language:English  
Seeds | Leech:191 | 104
Complete: 1,519
Health:
Total Size:1.15 GB
Downloaded:12 Times
Added By:      teamrdx
Date Added:10-10-2018 03:05:pm | Last Edit:  12-10-2018 05:38:am

 

Main Technical Comments
18+ The House Of Violent Desire 2018 UNCENSORED Movies 720p HDRip x264 5.1 ESubs with Sample ☻rDX☻

:clapSCREEN SHOTS & POSTER::clap

https://iphonehosting.eu/2018/10/tv/index.html
https://iphonehosting.eu/2018/10/tv/1.html
https://iphonehosting.eu/2018/10/tv/2.html
https://iphonehosting.eu/2018/10/tv/3.html
https://iphonehosting.eu/2018/10/tv/4.html
https://iphonehosting.eu/2018/10/tv/5.html
https://iphonehosting.eu/2018/10/tv/6.html
https://iphonehosting.eu/2018/10/tv/7.html
https://iphonehosting.eu/2018/10/tv/8.html
https://iphonehosting.eu/2018/10/tv/9.html
https://iphonehosting.eu/2018/10/tv/10.html


File size                                : 1.14 GiB
Duration                                 : 1 h 57 min
Overall bit rate                         : 1 387 kb/s
Movie name                               : 18+ The House Of Violent Desire 2018 UNCENSORED Movies 720p HDRip x264 5.1 ESubs ☻rDX☻

Video
ID                                       : 2
Format                                   : AVC
Format/Info                              : Advanced Video Codec
Format profile                           : [email protected]
Format settings, CABAC                   : Yes
Format settings, ReFrames                : 4 frames
Codec ID                                 : V_MPEG4/ISO/AVC
Duration                                 : 1 h 57 min
Bit rate                                 : 1 200 kb/s
Width                                    : 1 280 pixels
Height                                   : 542 pixels
Display aspect ratio                     : 2.35:1
Frame rate mode                          : Constant
Frame rate                               : 25.000 FPS
Color space                              : YUV
Chroma subsampling                       : 4:2:0
Bit depth                                : 8 bits
Scan type                                : Progressive
Bits/(Pixel*Frame)                       : 0.069
Stream size                              : 982 MiB (84%)
Title                                    : ☻rDX☻
Writing library                          : x264

Audio
ID                                       : 1
Format                                   : AC-3
Format/Info                              : Audio Coding 3
Mode extension                           : CM (complete main)
Format settings, Endianness              : Big
Codec ID                                 : A_AC3
Duration                                 : 1 h 57 min
Bit rate mode                            : Constant
Bit rate                                 : 192 kb/s
Channel(s)                               : 6 channels
Channel positions                        : Front: L C R, Side: L R, LFE
Sampling rate                            : 48.0 kHz
Frame rate                               : 31.250 FPS (1536 spf)
Bit depth                                : 16 bits
Compression mode                         : Lossy
Delay relative to video                  : -21 ms
Stream size                              : 162 MiB (14%)
Title                                    : ☻rDX☻
Default                                  : Yes
Forced                                   : No

Text
ID                                       : 3
Format                                   : UTF-8
Codec ID                                 : S_TEXT/UTF8
Codec ID/Info                            : UTF-8 Plain Text
Title                                    : ☻rDX☻
Language                                 : English
Default                                  : Yes
Forced                                   : No

https://www.imdb.com/title/tt6623390/
........................................................................


Loading...


Trackers:
udp://tracker.coppersurfer.tk:6969/announce

18+ The House Of Violent Desire 2018 UNCENSORED Movies 720p HDRip x264 5.1 ESubs with Sample ☻rDX☻
Files
18+ The House Of Violent Desire 2018 UNCENSORED Movies 720p HDRip x264 5.1 ESubs ☻rDX☻.mkv1.14 GB
Sample ~ 18+ The House Of Violent Desire 2018 UNCENSORED Movies 720p HDRip x264 5.1 ESubs ☻rDX☻.mkv12.98 MB


Similar Torrents
Type Name Size Added S L
h.264/x264 18+ The Last Warrior 2018 UNCENSORED Movies BRRip ...
848.28 MB 2018-08-07 08:39:34 1067 270
HD 18+ The Big Take 2018 UNCENSORED Movies 720p HDRip...
960.86 MB 2018-09-05 06:22:49 670 314
HD 18+ The Second 2018 UNCENSORED Movies HDRip x264 5...
848.63 MB 2018-08-01 09:35:26 572 263
HD 18+ The Honey Killer 2018 UNCENSORED Movies 720p H...
705.59 MB 2018-07-18 06:51:11 572 301
h.264/x264 18+ The Barn 2018 UNCENSORED Movies BRRip x264 AAC...
706.89 MB 2018-08-04 04:38:55 524 168
HD 18+ The Krays Dead Man Walking 2018 UNCENSORED Mov...
849.22 MB 2018-09-10 20:09:27 513 465
HD 18+ The Happy Prince 2018 UNCENSORED Movies 720p H...
806.96 MB 2018-10-08 08:29:47 430 278
HD 18+ The Mumbai Siege 4 Days Of Terror 2018 UNCENSO...
1.10 GB 2018-09-24 08:26:17 428 209
HD 18+ The Con Is On 2018 UNCENSORED Movies 720p BluR...
899.33 MB 2018-07-29 12:47:55 425 125
DVD 18+ The Ninth Passenger 2018 Movies DVDRip x264 AA...
707.48 MB 2018-08-17 08:29:57 403 209

Comments:
No comments still posted
Loading...
Powered by TT | Page Generated In 0.035879 secs.
| RSS Feed | Feed Info