[Login] or [Signup]

First Cams

Xvid/x264



Non-English

Loading...

Legal Action 2018 Movies 720p HDRip x264 AAC with Sample ☻rDX☻


Complete Name :Legal Action 2018 Movies 720p HDRip x264 AAC with Sample ☻rDX☻
Download torrent:    Legal Action 2018 Movies 720p HDRip x264 AAC with Sample ☻rDX☻.torrent
Info Hash:9a7f76d7fed4458a7f2813542ebd715ee967fe33
Category:Movies  > HD
Torrent language:English  
Seeds | Leech:4 | 11
Complete: 136
Health:
Total Size:885.31 MB
Downloaded:10 Times
Added By:      teamrdx
Date Added:10-10-2018 02:37:pm | Last Edit:  12-10-2018 03:50:am

 

IMDB
Legal Action
Legal Action Released N/A

Genre Action, Western

Director Brent Christy

Writer Shea Sizemore, Jason White

Actors Eric Close, Tanya Clarke, Nick Searcy, Tommy Flanagan

Plot Big-city lawyer Casey McKay, (Eric Close - Nashville, Without a Trace) is drawn to a small town by his ex-wife to defend her brother, accused of murdering a DA. He discovers a web of ...

Link http://www.imdb.com/title/tt7656570

Last Updated 21-10-2018 13:36:49

Main Technical Comments
Legal Action 2018 Movies 720p HDRip x264 AAC with Sample ☻rDX☻

:clapSCREEN SHOTS & POSTER::clap

https://iphonehosting.eu/2018/10/virus/index.html
https://iphonehosting.eu/2018/10/virus/1.html
https://iphonehosting.eu/2018/10/virus/2.html
https://iphonehosting.eu/2018/10/virus/3.html
https://iphonehosting.eu/2018/10/virus/4.html
https://iphonehosting.eu/2018/10/virus/5.html
https://iphonehosting.eu/2018/10/virus/6.html
https://iphonehosting.eu/2018/10/virus/7.html
https://iphonehosting.eu/2018/10/virus/8.html
https://iphonehosting.eu/2018/10/virus/9.html
https://iphonehosting.eu/2018/10/virus/10.html


File size                                : 876 MiB
Duration                                 : 1 h 37 min
Overall bit rate                         : 1 256 kb/s
Movie name                               : Legal Action 2018 Movies 720p HDRip x264 AAC ☻rDX☻

Video
ID                                       : 2
Format                                   : AVC
Format/Info                              : Advanced Video Codec
Format profile                           : [email protected]
Format settings, CABAC                   : Yes
Format settings, ReFrames                : 4 frames
Codec ID                                 : V_MPEG4/ISO/AVC
Duration                                 : 1 h 37 min
Bit rate                                 : 1 200 kb/s
Width                                    : 1 280 pixels
Height                                   : 716 pixels
Display aspect ratio                     : 16:9
Frame rate mode                          : Constant
Frame rate                               : 23.976 (23976/1000) FPS
Original frame rate                      : 23.976 (24000/1001) FPS
Color space                              : YUV
Chroma subsampling                       : 4:2:0
Bit depth                                : 8 bits
Scan type                                : Progressive
Bits/(Pixel*Frame)                       : 0.055
Stream size                              : 814 MiB (93%)
Title                                    : ☻rDX☻
Writing library                          : x264

Audio
ID                                       : 1
Format                                   : MPEG Audio
Format version                           : Version 1
Format profile                           : Layer 3
Mode                                     : Joint stereo
Codec ID                                 : A_MPEG/L3
Codec ID/Hint                            : MP3
Duration                                 : 1 h 37 min
Bit rate mode                            : Constant
Bit rate                                 : 64.0 kb/s
Channel(s)                               : 2 channels
Sampling rate                            : 44.1 kHz
Compression mode                         : Lossy
Delay relative to video                  : -21 ms
Stream size                              : 44.6 MiB (5%)
Title                                    : ☻rDX☻☻rDX☻
Default                                  : Yes
Forced                                   : No

https://www.imdb.com/title/tt7656570/
........................................................................


Loading...


Trackers:
udp://tracker.coppersurfer.tk:6969/announce

Legal Action 2018 Movies 720p HDRip x264 AAC with Sample ☻rDX☻
Files
Legal Action 2018 Movies 720p HDRip x264 AAC ☻rDX☻.mkv876.21 MB
Sample ~ Legal Action 2018 Movies 720p HDRip x264 AAC ☻rDX☻.mkv9.10 MB


Similar Torrents
Type Name Size Added S L
Divx/Xvid Legal.Action.2018.HDRip.XviD.AC3-EVO
1.36 GB 2018-10-09 05:32:09 2212 773
HD Legal Action 2018 720p WEB-DL x264 [MW]
921.37 MB 2018-10-10 09:05:06 116 69
HD Legal Action 2018 Movies HDRip x264 AAC with Sampl...
705.87 MB 2018-10-09 08:44:20 108 74
HD Legal Action 2018 Movies HDRip x264 5.1 with Sampl...
930.93 MB 2018-10-09 08:49:41 69 54
HD Legal Action 2018 Movies 720p HDRip x264 5.1 with ...
1.08 GB 2018-10-10 13:41:44 60 17
h.264/x264 Legal.Action.2018.HDRip.XviD.AC3-EVO[EtMovies]
1.36 GB 2018-10-10 12:09:16 36 24
HD Legal.Action.2018.1080p.WEB-DL.DD5.1.H.264-FGT[EtH...
3.81 GB 2018-10-10 14:28:19 21 8

Comments:
No comments still posted
Loading...
Powered by TT | Page Generated In 0.665914 secs.
| RSS Feed | Feed Info