[Login] or [Signup]

First Cams

Xvid/x264



Non-English

Loading...

18+ Forsaken 2018 Movies 720p HDRip x264 5.1 with Sample ☻rDX☻


Complete Name :18+ Forsaken 2018 Movies 720p HDRip x264 5.1 with Sample ☻rDX☻
Download torrent:    18+ Forsaken 2018 Movies 720p HDRip x264 5.1 with Sample ☻rDX☻.torrent
Info Hash:1ccf36a9dc832e545eb6d273fc5bc51ea14006be
Category:Movies  > HD
Torrent language:English  
Seeds | Leech:111 | 85
Complete: 896
Health:
Total Size:927.24 MB
Downloaded:10 Times
Added By:      teamrdx
Date Added:10-10-2018 02:18:pm | Last Edit:  12-10-2018 12:47:am

 

Main Technical Comments
18+ Forsaken 2018 Movies 720p HDRip x264 5.1 with Sample ☻rDX☻

:clapSCREEN SHOTS & POSTER::clap

https://iphonehosting.eu/2018/10/wallet/index.html
https://iphonehosting.eu/2018/10/wallet/1.html
https://iphonehosting.eu/2018/10/wallet/2.html
https://iphonehosting.eu/2018/10/wallet/3.html
https://iphonehosting.eu/2018/10/wallet/4.html
https://iphonehosting.eu/2018/10/wallet/5.html
https://iphonehosting.eu/2018/10/wallet/6.html
https://iphonehosting.eu/2018/10/wallet/7.html
https://iphonehosting.eu/2018/10/wallet/8.html
https://iphonehosting.eu/2018/10/wallet/9.html
https://iphonehosting.eu/2018/10/wallet/10.html


File size                                : 917 MiB
Duration                                 : 1 h 26 min
Overall bit rate                         : 1 480 kb/s
Movie name                               : 18+ Forsaken 2018 Movies 720p HDRip x264 5.1 ☻rDX☻

Video
ID                                       : 2
Format                                   : AVC
Format/Info                              : Advanced Video Codec
Format profile                           : [email protected]
Format settings, CABAC                   : Yes
Format settings, ReFrames                : 4 frames
Codec ID                                 : V_MPEG4/ISO/AVC
Duration                                 : 1 h 26 min
Bit rate                                 : 1 100 kb/s
Width                                    : 1 280 pixels
Height                                   : 544 pixels
Display aspect ratio                     : 2.35:1
Frame rate mode                          : Constant
Frame rate                               : 23.976 (24000/1001) FPS
Color space                              : YUV
Chroma subsampling                       : 4:2:0
Bit depth                                : 8 bits
Scan type                                : Progressive
Bits/(Pixel*Frame)                       : 0.066
Stream size                              : 661 MiB (72%)
Title                                    : ☻rDX☻
Writing library                          : x264

Audio
ID                                       : 1
Format                                   : AC-3
Format/Info                              : Audio Coding 3
Mode extension                           : CM (complete main)
Format settings, Endianness              : Big
Codec ID                                 : A_AC3
Duration                                 : 1 h 26 min
Bit rate mode                            : Constant
Bit rate                                 : 384 kb/s
Channel(s)                               : 6 channels
Channel positions                        : Front: L C R, Side: L R, LFE
Sampling rate                            : 48.0 kHz
Frame rate                               : 31.250 FPS (1536 spf)
Bit depth                                : 16 bits
Compression mode                         : Lossy
Delay relative to video                  : -21 ms
Stream size                              : 238 MiB (26%)
Title                                    : ☻rDX☻
Default                                  : Yes
Forced                                   : No

https://www.imdb.com/title/tt5811154/
........................................................................


Loading...


Trackers:
udp://tracker.coppersurfer.tk:6969/announce

18+ Forsaken 2018 Movies 720p HDRip x264 5.1 with Sample ☻rDX☻
Files
18+ Forsaken 2018 Movies 720p HDRip x264 5.1 ☻rDX☻.mkv917.26 MB
Sample ~ 18+ Forsaken 2018 Movies 720p HDRip x264 5.1 ☻rDX☻.mkv9.98 MB


Similar Torrents
Type Name Size Added S L
HD 18+ Forsaken 2018 Movies HDRip x264 5.1 with Sampl...
896.99 MB 2018-10-09 07:14:11 314 190
HD 18+ Forsaken 2018 Movies HDRip x264 AAC with Sampl...
704.42 MB 2018-10-09 07:03:05 42 61
HD 18+ Forsaken 2018 Movies 720p HDRip x264 AAC with ...
726.82 MB 2018-10-10 13:12:27 12 10

Comments:
No comments still posted
Loading...
Powered by TT | Page Generated In 0.040769 secs.
| RSS Feed | Feed Info