[Login] or [Signup]

First Cams

Xvid/x264



Non-English

Loading...

18+ Forsaken 2018 Movies 720p HDRip x264 AAC with Sample ☻rDX☻


Complete Name :18+ Forsaken 2018 Movies 720p HDRip x264 AAC with Sample ☻rDX☻
Download torrent:    18+ Forsaken 2018 Movies 720p HDRip x264 AAC with Sample ☻rDX☻.torrent
Info Hash:b64d4ee2689c80e074c2f664da90f6d2e624d27c
Category:Movies  > HD
Torrent language:English  
Seeds | Leech:12 | 10
Complete: 166
Health:
Total Size:726.82 MB
Downloaded:11 Times
Added By:      teamrdx
Date Added:10-10-2018 02:12:pm | Last Edit:  11-10-2018 11:49:pm

 

Main Technical Comments
18+ Forsaken 2018 Movies 720p HDRip x264 AAC with Sample ☻rDX☻

:clapSCREEN SHOTS & POSTER::clap

https://iphonehosting.eu/2018/10/wallet/index.html
https://iphonehosting.eu/2018/10/wallet/1.html
https://iphonehosting.eu/2018/10/wallet/2.html
https://iphonehosting.eu/2018/10/wallet/3.html
https://iphonehosting.eu/2018/10/wallet/4.html
https://iphonehosting.eu/2018/10/wallet/5.html
https://iphonehosting.eu/2018/10/wallet/6.html
https://iphonehosting.eu/2018/10/wallet/7.html
https://iphonehosting.eu/2018/10/wallet/8.html
https://iphonehosting.eu/2018/10/wallet/9.html
https://iphonehosting.eu/2018/10/wallet/10.html


File size                                : 719 MiB
Duration                                 : 1 h 26 min
Overall bit rate                         : 1 160 kb/s
Movie name                               : 18+ Forsaken 2018 Movies 720p HDRip x264 AAC ☻rDX☻

Video
ID                                       : 2
Format                                   : AVC
Format/Info                              : Advanced Video Codec
Format profile                           : [email protected]
Format settings, CABAC                   : Yes
Format settings, ReFrames                : 4 frames
Codec ID                                 : V_MPEG4/ISO/AVC
Duration                                 : 1 h 26 min
Bit rate                                 : 1 100 kb/s
Width                                    : 1 280 pixels
Height                                   : 544 pixels
Display aspect ratio                     : 2.35:1
Frame rate mode                          : Constant
Frame rate                               : 23.976 (24000/1001) FPS
Color space                              : YUV
Chroma subsampling                       : 4:2:0
Bit depth                                : 8 bits
Scan type                                : Progressive
Bits/(Pixel*Frame)                       : 0.066
Stream size                              : 665 MiB (92%)
Title                                    : ☻rDX☻
Writing library                          : x264

Audio
ID                                       : 1
Format                                   : MPEG Audio
Format version                           : Version 1
Format profile                           : Layer 3
Mode                                     : Joint stereo
Mode extension                           : MS Stereo
Codec ID                                 : A_MPEG/L3
Codec ID/Hint                            : MP3
Duration                                 : 1 h 26 min
Bit rate mode                            : Constant
Bit rate                                 : 64.0 kb/s
Channel(s)                               : 2 channels
Sampling rate                            : 44.1 kHz
Compression mode                         : Lossy
Delay relative to video                  : -21 ms
Stream size                              : 39.7 MiB (6%)
Title                                    : ☻rDX☻
Default                                  : Yes
Forced                                   : No

https://www.imdb.com/title/tt5811154/
........................................................................


Loading...


Trackers:
udp://tracker.coppersurfer.tk:6969/announce

18+ Forsaken 2018 Movies 720p HDRip x264 AAC with Sample ☻rDX☻
Files
18+ Forsaken 2018 Movies 720p HDRip x264 AAC ☻rDX☻.mkv718.99 MB
Sample ~ 18+ Forsaken 2018 Movies 720p HDRip x264 AAC ☻rDX☻.mkv7.83 MB


Similar Torrents
Type Name Size Added S L
HD 18+ Forsaken 2018 Movies HDRip x264 5.1 with Sampl...
896.99 MB 2018-10-09 07:14:11 314 190
HD 18+ Forsaken 2018 Movies 720p HDRip x264 5.1 with ...
927.24 MB 2018-10-10 13:18:00 111 85
HD 18+ Forsaken 2018 Movies HDRip x264 AAC with Sampl...
704.42 MB 2018-10-09 07:03:05 42 61

Comments:
No comments still posted
Loading...
Powered by TT | Page Generated In 0.043536 secs.
| RSS Feed | Feed Info