[Login] or [Signup]

First Cams

Xvid/x264



Non-English

Loading...

Mamma Mia Here We Go Again 2018 1080p WEB-DL DD 5.1 x264 [MW]


Complete Name :Mamma Mia Here We Go Again 2018 1080p WEB-DL DD 5.1 x264 [MW]
Download torrent:    Mamma Mia Here We Go Again 2018 1080p WEB-DL DD 5.1 x264 [MW].torrent
Info Hash:f6155e32f2c36ebb2df4f696368ec7cf4979fa65
Category:Movies  > HD
Torrent language:English  
Seeds | Leech:157 | 160
Complete: 2,500
Health:
Total Size:2.35 GB
Downloaded:10 Times
Added By:      MovieFreak
Date Added:10-10-2018 12:29:pm | Last Edit:  11-10-2018 07:58:pm

 

Main Technical Comments




General
Format                                   : Matroska
Format version                           : Version 4 / Version 2
File size                                : 2.35 GiB
Duration                                 : 1 h 53 min
Overall bit rate                         : 2 965 kb/s

Video
ID                                       : 1
Format                                   : AVC
Format/Info                              : Advanced Video Codec
Format profile                           : [email protected]
Format settings                          : CABAC / 5 Ref Frames
Format settings, CABAC                   : Yes
Format settings, RefFrames               : 5 frames
Codec ID                                 : V_MPEG4/ISO/AVC
Duration                                 : 1 h 53 min
Bit rate                                 : 2 600 kb/s
Width                                    : 1 920 pixels
Height                                   : 798 pixels
Display aspect ratio                     : 2.40:1
Frame rate mode                          : Constant
Frame rate                               : 23.976 (24000/1001) FPS
Color space                              : YUV
Chroma subsampling                       : 4:2:0
Bit depth                                : 8 bits
Scan type                                : Progressive
Bits/(Pixel*Frame)                       : 0.071
Stream size                              : 2.05 GiB (87%)
Writing library                          : x264 core 155 r2901 7d0ff22
Default                                  : Yes
Forced                                   : No

Audio
ID                                       : 2
Format                                   : AC-3
Format/Info                              : Audio Coding 3
Codec ID                                 : A_AC3
Duration                                 : 1 h 53 min
Bit rate mode                            : Constant
Bit rate                                 : 384 kb/s
Channel(s)                               : 6 channels
Channel positions                        : Front: L C R, Side: L R, LFE
Sampling rate                            : 48.0 kHz
Frame rate                               : 31.250 FPS (1536 SPF)
Bit depth                                : 16 bits
Compression mode                         : Lossy
Stream size                              : 312 MiB (13%)
Language                                 : English
Service kind                             : Complete Main
Default                                  : Yes
Forced                                   : No

Text
ID                                       : 3
Format                                   : UTF-8
Codec ID                                 : S_TEXT/UTF8
Codec ID/Info                            : UTF-8 Plain Text
Duration                                 : 1 h 53 min
Bit rate                                 : 75 b/s
Count of elements                        : 2178
Stream size                              : 62.4 KiB (0%)
Language                                 : English
Default                                  : Yes
Forced                                   : No


https://pichub.site/image/dO7Ey
https://pichub.site/image/dOETp
https://pichub.site/image/dOVmb
https://pichub.site/image/dOcs0
https://pichub.site/image/dOyzT
https://pichub.site/image/dOwaV

........................................................................


Loading...


Trackers:
udp://tracker.coppersurfer.tk:6969/announce

Mamma Mia Here We Go Again 2018 1080p WEB-DL DD 5.1 x264 [MW]
Files
Mamma Mia Here We Go Again 2018 1080p WEB-DL DD 5.1 x264 [MW].mkv2.35 GB


Similar Torrents
Type Name Size Added S L
Divx/Xvid Mamma.Mia.Here.We.Go.Again.2018.HDRip.XviD.AC3-EVO
1.39 GB 2018-10-09 07:04:13 6274 2102
Divx/Xvid Mamma.Mia.Here.We.Go.Again.2018.HC.HDRip.XviD.AC3-...
1.41 GB 2018-09-22 15:33:51 5154 2497
Cam/TS Mamma Mia 2 2018 720p HDCAM AC3-1XBET
2.45 GB 2018-07-20 16:45:14 3482 870
Audio VA - Mamma Mia! Here We Go Again (OST) (2018) Mp3 ...
157.73 MB 2018-07-13 18:59:24 2204 224
Divx/Xvid Mamma.Mia.Here.We.Go.Again.2018.HC.HDRip.XViD.AC3-...
1.30 GB 2018-09-22 19:37:47 1438 538
Divx/Xvid Mamma Mia Here We Go Again (2018) [BRRip] [XviD] [...
699.59 MB 2018-10-14 12:01:42 1379 478
Cam/TS Mamma Mia Here We Go Again 2018 720p HDCAM x264 [M...
1.15 GB 2018-07-22 18:29:46 1355 311
Cam/TS Mamma.Mia!.2.2018.HDCAM.XViD.AC3-ETRG
1.26 GB 2018-07-21 08:27:36 1302 597
h.264/x264 Mamma Mia! Here We Go Again.2018.720p.HDCAM.AC3.Wi...
1.37 GB 2018-07-21 18:42:47 1056 773
HD Mamma Mia 2 Here We Go Again 2018 Movies HD Cam x2...
705.27 MB 2018-07-20 19:12:03 906 296

Comments:
No comments still posted
Loading...
Powered by TT | Page Generated In 0.044165 secs.
| RSS Feed | Feed Info