[Login] or [Signup]

First Cams

Xvid/x264



Non-English

Loading...

Between Worlds 2018 720p BRRip x264 ESub [MW]


Complete Name :Between Worlds 2018 720p BRRip x264 ESub [MW]
Download torrent:    Between Worlds 2018 720p BRRip x264 ESub [MW].torrent
Info Hash:bb79024b8e2654611f3f617b4b7ceea6c65fed32
Category:Movies  > HD
Torrent language:English  
Seeds | Leech:146 | 44
Complete: 1,685
Health:
Total Size:847.98 MB
Downloaded:10 Times
Added By:      MovieFreak
Date Added:10-10-2018 10:55:am | Last Edit:  11-10-2018 06:52:pm

 

IMDB
Between Worlds
Between Worlds Released 22 Sep 2018

Genre Action, Mystery, Thriller

Director Maria Pulera

Writer Maria Pulera

Actors Nicolas Cage, Penelope Mitchell, Franka Potente, Garrett Clayton

Plot The story follows Joe, (Cage), a down-on-his-luck truck driver haunted by the memory of his deceased wife and child. He meets Julie (Potente), a spiritually gifted woman who enlists Joe in ...

Link http://www.imdb.com/title/tt7295450

Last Updated 21-10-2018 13:43:27
6.5

Votes 81

Main Technical Comments




General
Format                                   : Matroska
Format version                           : Version 4 / Version 2
File size                                : 848 MiB
Duration                                 : 1 h 30 min
Overall bit rate                         : 1 313 kb/s

Video
ID                                       : 1
Format                                   : AVC
Format/Info                              : Advanced Video Codec
Format profile                           : [email protected]
Format settings                          : CABAC / 4 Ref Frames
Format settings, CABAC                   : Yes
Format settings, RefFrames               : 4 frames
Codec ID                                 : V_MPEG4/ISO/AVC
Duration                                 : 1 h 30 min
Bit rate                                 : 1 200 kb/s
Width                                    : 1 280 pixels
Height                                   : 692 pixels
Display aspect ratio                     : 1.85:1
Frame rate mode                          : Constant
Frame rate                               : 23.976 (24000/1001) FPS
Color space                              : YUV
Chroma subsampling                       : 4:2:0
Bit depth                                : 8 bits
Scan type                                : Progressive
Bits/(Pixel*Frame)                       : 0.057
Stream size                              : 764 MiB (90%)
Writing library                          : x264 core 155 r2901 7d0ff22
Default                                  : Yes
Forced                                   : No

Audio
ID                                       : 2
Format                                   : AAC
Format/Info                              : Advanced Audio Codec
Format profile                           : LC
Codec ID                                 : A_AAC-2
Duration                                 : 1 h 30 min
Bit rate                                 : 128 kb/s
Channel(s)                               : 2 channels
Channel positions                        : Front: L R
Sampling rate                            : 48.0 kHz
Frame rate                               : 46.875 FPS (1024 SPF)
Compression mode                         : Lossy
Stream size                              : 82.9 MiB (10%)
Language                                 : English
Default                                  : Yes
Forced                                   : No

Text
ID                                       : 3
Format                                   : UTF-8
Codec ID                                 : S_TEXT/UTF8
Codec ID/Info                            : UTF-8 Plain Text
Duration                                 : 1 h 19 min
Bit rate                                 : 53 b/s
Count of elements                        : 1138
Stream size                              : 31.4 KiB (0%)
Language                                 : English
Default                                  : Yes
Forced                                   : No


https://pichub.site/image/dOJsR
https://pichub.site/image/dOazB
https://pichub.site/image/dOI5Y
https://pichub.site/image/dOOj6
https://pichub.site/image/dOSwt
https://pichub.site/image/dOD04

........................................................................


Loading...


Trackers:
udp://tracker.coppersurfer.tk:6969/announce

Between Worlds 2018 720p BRRip x264 ESub [MW]
Files
Between Worlds 2018 720p BRRip x264 ESub [MW].mkv847.98 MB


Similar Torrents
Type Name Size Added S L
Divx/Xvid Between.Worlds.2018.BDRip.XviD.AC3-EVO
1.30 GB 2018-10-08 18:22:20 4998 1213
x264 Mr.Inbetween.S01E01.WEBRip.x264-eSc[ettv]
199.98 MB 2018-09-22 04:31:57 1830 136
x264 Mr.Inbetween.S01E02.WEBRip.x264-eSc[ettv]
159.97 MB 2018-09-22 04:34:00 907 61
Ebooks Weird Math - A Teenage Genius and His Teacher Reve...
15.91 MB 2018-08-28 20:56:12 782 21
Video BabyGotBoobs - Lily Love (Color Between The Lines)...
355.17 MB 2018-08-23 16:28:22 516 92
Ebooks The Secret Life of Plants a Fascinating Account of...
2.01 MB 2018-06-15 07:11:06 413 0
HD 18+ Between Worlds 2018 UNCENSORED Movies 720p Blu...
1.21 GB 2018-10-09 07:47:41 353 213
Ebooks 7 Steps to Wealth - The Vital Difference Between P...
3.67 MB 2018-06-04 07:02:15 343 2
x264 Mr.Inbetween.S01E05.WEBRip.x264-TBS[ettv]
163.89 MB 2018-10-10 05:50:21 305 27
h.264/x264 Between.Worlds.2018.BDRip.XviD.AC3-EVO[EtMovies]
1.30 GB 2018-10-08 17:56:56 266 86

Comments:
No comments still posted
Loading...
Powered by TT | Page Generated In 0.586221 secs.
| RSS Feed | Feed Info