[Login] or [Signup]

First Cams

Xvid/x264



Non-English

Loading...

Knuckleball 2018 1080p WEB-DL DD 5.1 x264 [MW]


Complete Name :Knuckleball 2018 1080p WEB-DL DD 5.1 x264 [MW]
Download torrent:    Knuckleball 2018 1080p WEB-DL DD 5.1 x264 [MW].torrent
Info Hash:76a63697ce10583f7543c114877ef8afb498a340
Category:Movies  > HD
Torrent language:English  
Seeds | Leech:306 | 83
Complete: 1,753
Health:
Total Size:1.59 GB
Downloaded:10 Times
Added By:      MovieFreak
Date Added:10-10-2018 10:55:am | Last Edit:  11-10-2018 06:52:pm

 

Main Technical Comments




General
Format                                   : Matroska
Format version                           : Version 4 / Version 2
File size                                : 1.59 GiB
Duration                                 : 1 h 28 min
Overall bit rate                         : 2 562 kb/s

Video
ID                                       : 1
Format                                   : AVC
Format/Info                              : Advanced Video Codec
Format profile                           : [email protected]
Format settings                          : CABAC / 4 Ref Frames
Format settings, CABAC                   : Yes
Format settings, RefFrames               : 4 frames
Codec ID                                 : V_MPEG4/ISO/AVC
Duration                                 : 1 h 28 min
Bit rate                                 : 2 200 kb/s
Width                                    : 1 920 pixels
Height                                   : 788 pixels
Display aspect ratio                     : 2.40:1
Frame rate mode                          : Constant
Frame rate                               : 23.976 (24000/1001) FPS
Color space                              : YUV
Chroma subsampling                       : 4:2:0
Bit depth                                : 8 bits
Scan type                                : Progressive
Bits/(Pixel*Frame)                       : 0.061
Stream size                              : 1.35 GiB (85%)
Writing library                          : x264 core 155 r2901 7d0ff22
Default                                  : Yes
Forced                                   : No

Audio
ID                                       : 2
Format                                   : AC-3
Format/Info                              : Audio Coding 3
Codec ID                                 : A_AC3
Duration                                 : 1 h 28 min
Bit rate mode                            : Constant
Bit rate                                 : 384 kb/s
Channel(s)                               : 6 channels
Channel positions                        : Front: L C R, Side: L R, LFE
Sampling rate                            : 48.0 kHz
Frame rate                               : 31.250 FPS (1536 SPF)
Bit depth                                : 16 bits
Compression mode                         : Lossy
Stream size                              : 244 MiB (15%)
Language                                 : English
Service kind                             : Complete Main
Default                                  : Yes
Forced                                   : No

Text
ID                                       : 3
Format                                   : UTF-8
Codec ID                                 : S_TEXT/UTF8
Codec ID/Info                            : UTF-8 Plain Text
Duration                                 : 1 h 28 min
Bit rate                                 : 29 b/s
Count of elements                        : 812
Stream size                              : 19.4 KiB (0%)
Language                                 : English
Default                                  : Yes
Forced                                   : No


https://pichub.site/image/dIF2r
https://pichub.site/image/dIbkQ
https://pichub.site/image/dIexv
https://pichub.site/image/dOfmu
https://pichub.site/image/dIjTd
https://pichub.site/image/dO4D9

........................................................................


Loading...


Trackers:
udp://tracker.coppersurfer.tk:6969/announce

Knuckleball 2018 1080p WEB-DL DD 5.1 x264 [MW]
Files
Knuckleball 2018 1080p WEB-DL DD 5.1 x264 [MW].mkv1.59 GB


Similar Torrents
Type Name Size Added S L
Divx/Xvid Knuckleball.2018.HDRip.XviD.AC3-EVO
1.26 GB 2018-10-09 05:31:28 791 268
HD Knuckleball 2018 Movies HDRip x264 AAC with Sample...
705.95 MB 2018-10-09 08:21:31 108 66
HD Knuckleball 2018 Movies HDRip x264 5.1 with Sample...
906.92 MB 2018-10-09 08:26:46 53 22
h.264/x264 Knuckleball.2018.HDRip.XviD.AC3-EVO[EtMovies]
1.26 GB 2018-10-10 12:09:56 33 15
HD Knuckleball.2018.1080p.WEB-DL.DD5.1.H.264-FGT[EtHD...
3.03 GB 2018-10-10 14:36:01 20 16

Comments:
No comments still posted
Loading...
Powered by TT | Page Generated In 0.042606 secs.
| RSS Feed | Feed Info