[Login] or [Signup]

First Cams

Xvid/x264



Non-English

Loading...

Andhadhun 2018 Hindi 720p PRE DVDRip x264 [MW]


Complete Name :Andhadhun 2018 Hindi 720p PRE DVDRip x264 [MW]
Download torrent:    Andhadhun 2018 Hindi 720p PRE DVDRip x264 [MW].torrent
Info Hash:4022463df4c1d66aeca2141e9a1f0234bc2b376e
Category:Movies  > Non-English
Torrent language:Hindi  
Seeds | Leech:1,697 | 1,180
Complete: 7,106
Health:
Total Size:1.46 GB
Downloaded:110 Times
Added By:      MovieFreak
Date Added:07-10-2018 02:15:pm | Last Edit:  08-10-2018 07:17:pm

 

Main Technical Comments




General
Format                                   : Matroska
Format version                           : Version 4 / Version 2
File size                                : 1.46 GiB
Duration                                 : 2 h 0 min
Overall bit rate                         : 1 729 kb/s

Video
ID                                       : 1
Format                                   : AVC
Format/Info                              : Advanced Video Codec
Format profile                           : [email protected]
Format settings                          : CABAC / 4 Ref Frames
Format settings, CABAC                   : Yes
Format settings, RefFrames               : 4 frames
Codec ID                                 : V_MPEG4/ISO/AVC
Duration                                 : 2 h 0 min
Bit rate                                 : 1 600 kb/s
Width                                    : 1 280 pixels
Height                                   : 540 pixels
Display aspect ratio                     : 2.40:1
Frame rate mode                          : Constant
Frame rate                               : 29.970 (30000/1001) FPS
Color space                              : YUV
Chroma subsampling                       : 4:2:0
Bit depth                                : 8 bits
Scan type                                : Progressive
Bits/(Pixel*Frame)                       : 0.077
Stream size                              : 1.35 GiB (92%)
Writing library                          : x264 core 155 r2901 7d0ff22
Default                                  : Yes
Forced                                   : No

Audio
ID                                       : 2
Format                                   : AAC
Format/Info                              : Advanced Audio Codec
Format profile                           : LC
Codec ID                                 : A_AAC-2
Duration                                 : 2 h 0 min
Bit rate                                 : 128 kb/s
Channel(s)                               : 2 channels
Channel positions                        : Front: L R
Sampling rate                            : 48.0 kHz
Frame rate                               : 46.875 FPS (1024 SPF)
Compression mode                         : Lossy
Stream size                              : 111 MiB (7%)
Language                                 : Hindi
Default                                  : Yes
Forced                                   : No


https://pichub.site/image/EqwGB
https://pichub.site/image/EqiAt
https://pichub.site/image/EqhI6
https://pichub.site/image/Eq84p
https://pichub.site/image/Eqt64
https://pichub.site/image/EqACy

........................................................................


Loading...


Trackers:
udp://tracker.coppersurfer.tk:6969/announce

Andhadhun 2018 Hindi 720p PRE DVDRip x264 [MW]
Files
Andhadhun 2018 Hindi 720p PRE DVDRip x264 [MW].mkv1.46 GB


Similar Torrents
Type Name Size Added S L
Non-English Andhadhun 2018 PreDvd Hindi 1GB x264 AAC - mkvCine...
1.00 GB 2018-10-06 15:38:08 1115 1144
h.264/x264 Andhadhun (2018) Hindi 720p Pre-DVDRip x264 AAC - ...
952.05 MB 2018-10-06 19:12:18 511 180
Cam/TS Andhadhun 2018 Hindi Movies PDVDRip x264 Clean Aud...
706.54 MB 2018-10-06 07:48:42 503 523
h.264/x264 Andhadhun (2018) Hindi 1CD Pre-DVDRip x264 AAC - D...
698.85 MB 2018-10-06 00:04:10 396 80
HD Andhadhun.(2018).PRE.HQ.720p.Hindi.x264.AAC.-.Team...
1.46 GB 2018-10-06 07:46:16 329 118
Cam/TS Andhadhun 2018 Hindi PRE-H264-AC3-Zi$t
1.39 GB 2018-10-06 09:28:56 283 242
Cam/TS Andhadhun (2018) 720p Hindi Pre-DVDRip x264 AAC by...
1.37 GB 2018-10-06 16:42:35 141 37
HD Andhadhun (2018) Hindi Pre-DVDRip x264 AAC by Full...
557.02 MB 2018-10-06 11:52:20 96 148
Divx/Xvid Andhadhun (2018) Comedy , Mystery CamRip
952.05 MB 2018-10-09 06:10:22 54 34

Comments:
No comments still posted
Loading...
Powered by TT | Page Generated In 0.050584 secs.
| RSS Feed | Feed Info