[Login] or [Signup]

First Cams

Xvid/x264



Non-English

Loading...

Love Yatri 2018 Hindi 720p PRE-DVDRip x264 [MW]


Complete Name :Love Yatri 2018 Hindi 720p PRE-DVDRip x264 [MW]
Download torrent:    Love Yatri 2018 Hindi 720p PRE-DVDRip x264 [MW].torrent
Info Hash:25924b4674979a6317f3de4301716bf6551c9d97
Category:Movies  > Non-English
Torrent language:Hindi  
Seeds | Leech:1,122 | 815
Complete: 4,538
Health:
Total Size:1.29 GB
Downloaded:12 Times
Added By:      MovieFreak
Date Added:07-10-2018 02:12:pm | Last Edit:  08-10-2018 07:19:pm

 

Main Technical Comments





General
Format                                   : Matroska
Format version                           : Version 4 / Version 2
File size                                : 1.29 GiB
Duration                                 : 2 h 7 min
Overall bit rate                         : 1 443 kb/s

Video
ID                                       : 1
Format                                   : AVC
Format/Info                              : Advanced Video Codec
Format profile                           : [email protected]
Format settings                          : CABAC / 4 Ref Frames
Format settings, CABAC                   : Yes
Format settings, RefFrames               : 4 frames
Codec ID                                 : V_MPEG4/ISO/AVC
Duration                                 : 2 h 7 min
Bit rate                                 : 1 300 kb/s
Width                                    : 1 280 pixels
Height                                   : 520 pixels
Display aspect ratio                     : 2.462
Frame rate mode                          : Constant
Frame rate                               : 25.000 FPS
Color space                              : YUV
Chroma subsampling                       : 4:2:0
Bit depth                                : 8 bits
Scan type                                : Progressive
Bits/(Pixel*Frame)                       : 0.078
Stream size                              : 1.17 GiB (91%)
Writing library                          : x264 core 155 r2901 7d0ff22
Default                                  : Yes
Forced                                   : No

Audio
ID                                       : 2
Format                                   : AAC
Format/Info                              : Advanced Audio Codec
Format profile                           : LC
Codec ID                                 : A_AAC-2
Duration                                 : 2 h 7 min
Bit rate                                 : 128 kb/s
Channel(s)                               : 2 channels
Channel positions                        : Front: L R
Sampling rate                            : 48.0 kHz
Frame rate                               : 46.875 FPS (1024 SPF)
Compression mode                         : Lossy
Stream size                              : 117 MiB (9%)
Language                                 : Hindi
Default                                  : Yes
Forced                                   : No


https://pichub.site/image/Eqm7V
https://pichub.site/image/EquGT
https://pichub.site/image/EqGZN
https://pichub.site/image/EqvAZ
https://pichub.site/image/EqUOD
https://pichub.site/image/EqLfI

........................................................................


Loading...


Trackers:
udp://tracker.coppersurfer.tk:6969/announce

Love Yatri 2018 Hindi 720p PRE-DVDRip x264 [MW]
Files
Love Yatri 2018 Hindi 720p PRE-DVDRip x264 [MW].mkv1.29 GB


Similar Torrents
Type Name Size Added S L
h.264/x264 Love Yatri (2018) Hindi 720p Pre-DVDRip x264 AAC -...
1,008.01 MB 2018-10-06 18:45:49 486 204
Divx/Xvid Love Yatri (2018) Indian Hindi 720p CAMRip
1.06 GB 2018-10-10 00:08:47 177 89

Comments:
No comments still posted
Loading...
Powered by TT | Page Generated In 0.048687 secs.
| RSS Feed | Feed Info