[Login] or [Signup]

First Cams

Xvid/x264



Non-English

Loading...

RAID 2018 Hindi 1080p BluRay DD 5.1 x264 ESub [MW]


Complete Name :RAID 2018 Hindi 1080p BluRay DD 5.1 x264 ESub [MW]
Download torrent:    RAID 2018 Hindi 1080p BluRay DD 5.1 x264 ESub [MW].torrent
Info Hash:4ec38cb5064f3497ef98bee268586f472ed570d9
Category:Movies  > Non-English
Torrent language:Hindi  
Seeds | Leech:143 | 102
Complete: 414
Health:
Total Size:2.02 GB
Downloaded:12 Times
Added By:      MovieFreak
Date Added:07-10-2018 12:07:pm | Last Edit:  08-10-2018 05:04:pm

 

Main Technical Comments




General
Format                                   : Matroska
Format version                           : Version 4 / Version 2
File size                                : 2.02 GiB
Duration                                 : 2 h 0 min
Overall bit rate                         : 2 385 kb/s

Video
ID                                       : 1
Format                                   : AVC
Format/Info                              : Advanced Video Codec
Format profile                           : [email protected]
Format settings                          : CABAC / 4 Ref Frames
Format settings, CABAC                   : Yes
Format settings, RefFrames               : 4 frames
Codec ID                                 : V_MPEG4/ISO/AVC
Duration                                 : 2 h 0 min
Bit rate                                 : 2 000 kb/s
Width                                    : 1 920 pixels
Height                                   : 808 pixels
Display aspect ratio                     : 2.40:1
Frame rate mode                          : Constant
Frame rate                               : 24.000 FPS
Color space                              : YUV
Chroma subsampling                       : 4:2:0
Bit depth                                : 8 bits
Scan type                                : Progressive
Bits/(Pixel*Frame)                       : 0.054
Stream size                              : 1.68 GiB (83%)
Writing library                          : x264 core 155 r2901 7d0ff22
Default                                  : Yes
Forced                                   : No

Audio
ID                                       : 2
Format                                   : AC-3
Format/Info                              : Audio Coding 3
Codec ID                                 : A_AC3
Duration                                 : 2 h 0 min
Bit rate mode                            : Constant
Bit rate                                 : 384 kb/s
Channel(s)                               : 6 channels
Channel positions                        : Front: L C R, Side: L R, LFE
Sampling rate                            : 48.0 kHz
Frame rate                               : 31.250 FPS (1536 SPF)
Bit depth                                : 16 bits
Compression mode                         : Lossy
Stream size                              : 332 MiB (16%)
Language                                 : Hindi
Service kind                             : Complete Main
Default                                  : Yes
Forced                                   : No

Text
ID                                       : 3
Format                                   : PGS
Muxing mode                              : zlib
Codec ID                                 : S_HDMV/PGS
Codec ID/Info                            : Picture based subtitle format used on BDs/HD-DVDs
Duration                                 : 1 h 57 min
Bit rate                                 : 12.5 kb/s
Count of elements                        : 2782
Stream size                              : 10.5 MiB (1%)
Language                                 : English
Default                                  : Yes
Forced                                   : No


https://pichub.site/image/Ej684
https://pichub.site/image/Ejswb
https://pichub.site/image/EjP5p
https://pichub.site/image/EjXqy
https://pichub.site/image/Ej300
https://pichub.site/image/EjZFV

........................................................................


Loading...


Trackers:
udp://tracker.coppersurfer.tk:6969/announce

RAID 2018 Hindi 1080p BluRay DD 5.1 x264 ESub [MW]
Files
RAID 2018 Hindi 1080p BluRay DD 5.1 x264 ESub [MW].mkv2.02 GB


Similar Torrents
Type Name Size Added S L
Divx/Xvid Afraid.2018.DVDRip.XviD.AC3-EVO
1.28 GB 2018-10-12 06:51:38 596 542
Non-English Raid 2018 Hindi 1080p WEB-HD x264 ESub [MW]
1.71 GB 2018-06-02 20:38:55 355 106
Non-English RAID 2018 Hindi 720p BluRay x264 ESub [MW]
1.21 GB 2018-10-07 11:54:38 311 162
HD Raid 2018 Hindi 720p HDRip x264 AAC Esub { TaRa }....
1.17 GB 2018-05-27 18:35:56 259 37
Non-English Raid 2018 BluRay Hindi 720p x264 AAC 5.1 ESub - mk...
1.06 GB 2018-10-04 14:58:19 120 75
Non-English Raid 2018 Hindi 720p WEB-HD x264 ESub [MW]
926.51 MB 2018-06-02 13:40:38 97 37
DVD Afraid 2018 DVDRip AAC 2.0 x264 [MW]
816.81 MB 2018-10-12 22:28:35 77 14
DVD 18+ Afraid 2018 UNCENSORED Movies DVDRip x264 AAC ...
706.98 MB 2018-10-12 15:44:54 34 10
h.264/x264 Raid.2018.1080p.BluRay Hindi Action , Crime [Movie...
1.95 GB 2018-10-12 20:41:00 30 10
DVD 18+ Afraid 2018 UNCENSORED Movies DVDRip x264 5.1 ...
889.97 MB 2018-10-12 15:56:46 20 17

Comments:
No comments still posted
Loading...
Powered by TT | Page Generated In 0.056192 secs.
| RSS Feed | Feed Info