[Login] or [Signup]

First Cams

Xvid/x264



Non-English

Loading...

Blackmail 2018 Hindi 1080p BluRay DD 5.1 x264 ESub [MW]


Complete Name :Blackmail 2018 Hindi 1080p BluRay DD 5.1 x264 ESub [MW]
Download torrent:    Blackmail 2018 Hindi 1080p BluRay DD 5.1 x264 ESub [MW].torrent
Info Hash:c9b5caf7945aadc8d4daa2cdfaa6856f45a249ef
Category:Movies  > Non-English
Torrent language:Hindi  
Seeds | Leech:147 | 111
Complete: 497
Health:
Total Size:2.70 GB
Downloaded:11 Times
Added By:      MovieFreak
Date Added:07-10-2018 12:04:pm | Last Edit:  08-10-2018 05:06:pm

 

Main Technical Comments




General
Format                                   : Matroska
Format version                           : Version 4 / Version 2
File size                                : 2.70 GiB
Duration                                 : 2 h 18 min
Overall bit rate                         : 2 796 kb/s

Video
ID                                       : 1
Format                                   : AVC
Format/Info                              : Advanced Video Codec
Format profile                           : [email protected]
Format settings                          : CABAC / 4 Ref Frames
Format settings, CABAC                   : Yes
Format settings, RefFrames               : 4 frames
Codec ID                                 : V_MPEG4/ISO/AVC
Duration                                 : 2 h 18 min
Bit rate                                 : 2 400 kb/s
Width                                    : 1 920 pixels
Height                                   : 800 pixels
Display aspect ratio                     : 2.40:1
Frame rate mode                          : Constant
Frame rate                               : 24.000 FPS
Color space                              : YUV
Chroma subsampling                       : 4:2:0
Bit depth                                : 8 bits
Scan type                                : Progressive
Bits/(Pixel*Frame)                       : 0.065
Stream size                              : 2.32 GiB (86%)
Writing library                          : x264 core 155 r2901 7d0ff22
Default                                  : Yes
Forced                                   : No

Audio
ID                                       : 2
Format                                   : AC-3
Format/Info                              : Audio Coding 3
Codec ID                                 : A_AC3
Duration                                 : 2 h 18 min
Bit rate mode                            : Constant
Bit rate                                 : 384 kb/s
Channel(s)                               : 6 channels
Channel positions                        : Front: L C R, Side: L R, LFE
Sampling rate                            : 48.0 kHz
Frame rate                               : 31.250 FPS (1536 SPF)
Bit depth                                : 16 bits
Compression mode                         : Lossy
Stream size                              : 380 MiB (14%)
Language                                 : Hindi
Service kind                             : Complete Main
Default                                  : Yes
Forced                                   : No

Text
ID                                       : 3
Format                                   : PGS
Muxing mode                              : zlib
Codec ID                                 : S_HDMV/PGS
Codec ID/Info                            : Picture based subtitle format used on BDs/HD-DVDs
Duration                                 : 2 h 12 min
Bit rate                                 : 11.3 kb/s
Count of elements                        : 3365
Stream size                              : 10.8 MiB (0%)
Language                                 : English
Default                                  : Yes
Forced                                   : No


https://pichub.site/image/EjT3D
https://pichub.site/image/EjQaZ
https://pichub.site/image/EjW8g
https://pichub.site/image/EjeqX
https://pichub.site/image/EjblI
https://pichub.site/image/Ejqy8

........................................................................


Loading...


Trackers:
udp://tracker.coppersurfer.tk:6969/announce

Blackmail 2018 Hindi 1080p BluRay DD 5.1 x264 ESub [MW]
Files
Blackmail 2018 Hindi 1080p BluRay DD 5.1 x264 ESub [MW].mkv2.70 GB


Similar Torrents
Type Name Size Added S L
Video Blackmailed 18 10 11 Kali Roses Blackmailed Kalis ...
322.40 MB 2018-10-11 10:58:39 2853 655
h.264/x264 Blackmail (2018) Hindi 720p HDRip x264 AAC - Downl...
1.05 GB 2018-06-15 00:58:40 2435 680
Movie Evil Blackmail (Evil Angel) XXX DVDRip NEW 2018
1.74 GB 2018-09-23 16:44:18 1039 490
Movie Blackmailing The Nanny (Vision Films) XXX WEB-DL N...
3.49 GB 2018-07-25 18:35:33 764 663
Non-English Blackmail 2018 Hindi 1080p WEB-DL x264 ESub [MW]
1.81 GB 2018-06-16 15:37:11 440 61
HD Blackmail (2018) Hindi WEB-HD - 1080p - AVC - AAC ...
2.11 GB 2018-06-15 07:31:30 425 77
Movie Blackmailing My StepSis [ManipulativeMedia]Split S...
666.55 MB 2018-10-23 05:57:52 424 150
Non-English Blackmail 2018 Hindi 720p WEB-DL x264 ESub [MW]
977.33 MB 2018-06-16 12:14:38 285 121
Video [Blackmailed] Gianna Dior - Blackmailed Gianna Fuc...
791.99 MB 2018-10-26 02:49:29 255 111
Non-English Blackmail (2018) 1-3 Desi Pre Rip - x264 AC3 - DTO...
1.48 GB 2018-04-10 12:49:46 224 75

Comments:
No comments still posted
Loading...
Powered by TT | Page Generated In 0.047845 secs.
| RSS Feed | Feed Info