[Login] or [Signup]

First Cams

Xvid/x264



Non-English

Loading...

[60mbAnime.com] One Piece - 856 [480p] [EngSub].mkv


Complete Name :[60mbAnime.com] One Piece - 856 [480p] [EngSub].mkv
Download torrent:    [60mbAnime.com] One Piece - 856 [480p] [EngSub].mkv.torrent
Info Hash:fbdbd17ee8053f749704ccb4dedd048a0ccf745f
Category:Anime  > All
Torrent language:Japanese  
Seeds | Leech:8 | 1
Complete: 124
Health:
Total Size:223.19 MB
Downloaded:10 Times
Added By:      60mbAnime
Date Added:07-10-2018 06:44:am | Last Edit:  08-10-2018 12:55:pm

 

Main Technical Comments


General
Complete name                            : [60mbAnime.com] One Piece - 856 [480p] [EngSub].mkv
Format                                   : Matroska
Format version                           : Version 4
File size                                : 223 MiB
Duration                                 : 23 min 55 s
Overall bit rate                         : 1 305 kb/s
Encoded date                             : UTC 2010-02-22 21:41:29
Writing application                      : no_variable_data
Writing library                          : no_variable_data
Attachments                              : OpenSans-Semibold.ttf

Video
ID                                       : 1
Format                                   : AVC
Format/Info                              : Advanced Video Codec
Format profile                           : [email protected]
Format settings                          : CABAC / 6 Ref Frames
Format settings, CABAC                   : Yes
Format settings, RefFrames               : 6 frames
Codec ID                                 : V_MPEG4/ISO/AVC
Duration                                 : 23 min 55 s
Bit rate                                 : 1 205 kb/s
Width                                    : 848 pixels
Height                                   : 480 pixels
Display aspect ratio                     : 16:9
Frame rate mode                          : Constant
Frame rate                               : 23.976 (24000/1001) FPS
Color space                              : YUV
Chroma subsampling                       : 4:2:0
Bit depth                                : 8 bits
Scan type                                : Progressive
Bits/(Pixel*Frame)                       : 0.123
Stream size                              : 206 MiB (92%)
Writing library                          : x264 core 142
Encoding settings                        : cabac=1 / ref=6 / deblock=1:1:1 / analyse=0x1:0x111 / me=umh / subme=8 / psy=1 / psy_rd=0.40:0.00 / mixed_ref=1 / me_range=16 / chroma_me=1 / trellis=1 / 8x8dct=0 / cqm=0 / deadzone=21,11 / fast_pskip=1 / chroma_qp_offset=-2 / threads=6 / lookahead_threads=1 / sliced_threads=0 / nr=0 / decimate=1 / interlaced=0 / bluray_compat=0 / constrained_intra=0 / bframes=5 / b_pyramid=2 / b_adapt=2 / b_bias=0 / direct=3 / weightb=1 / open_gop=0 / weightp=2 / keyint=48 / keyint_min=25 / scenecut=0 / intra_refresh=0 / rc_lookahead=48 / rc=crf / mbtree=1 / crf=17.0 / qcomp=0.60 / qpmin=0 / qpmax=69 / qpstep=4 / vbv_maxrate=2000 / vbv_bufsize=3000 / crf_max=0.0 / nal_hrd=none / filler=0 / ip_ratio=1.40 / aq=1:0.60
Default                                  : Yes
Forced                                   : No

Audio
ID                                       : 2
Format                                   : AAC LC
Format/Info                              : Advanced Audio Codec Low Complexity
Codec ID                                 : A_AAC-2
Duration                                 : 23 min 55 s
Bit rate                                 : 96.0 kb/s
Channel(s)                               : 2 channels
Channel layout                           : L R
Sampling rate                            : 44.1 kHz
Frame rate                               : 43.066 FPS (1024 SPF)
Compression mode                         : Lossy
Delay relative to video                  : -83 ms
Stream size                              : 16.4 MiB (7%)
Language                                 : Japanese
Default                                  : Yes
Forced                                   : No

Text
ID                                       : 3
Format                                   : ASS
Codec ID                                 : S_TEXT/ASS
Codec ID/Info                            : Advanced Sub Station Alpha
Duration                                 : 21 min 5 s
Bit rate                                 : 85 b/s
Count of elements                        : 204
Compression mode                         : Lossless
Stream size                              : 13.3 KiB (0%)
Language                                 : English
Default                                  : Yes
Forced                                   : No
........................................................................


Loading...


Trackers:
http://anidex.moe:6969/announce

This Torrent also has backup trackers
URLSeedersLeechersCompleted
http://anidex.moe:6969/announce000
http://nyaa.tracker.wf:7777/announce000
http://tracker.anirena.com:80/announce000
http://share.camoe.cn:8080/announce000
https://uw0.xyz/000

[60mbAnime.com] One Piece - 856 [480p] [EngSub].mkv
Files
[60mbAnime.com] One Piece - 856 [480p] [EngSub].mkv223.19 MB


Similar Torrents
Type Name Size Added S L
All [60mbAnime.com] One Piece - 857 [480p].mkv
236.13 MB 2018-10-14 05:42:57 11 3
All [60mbAnime] One Piece - 855 [480p] [EngSub]
228.25 MB 2018-09-30 15:23:42 7 1
All [60mbAnime.com] Radiant - 01 [720p] [EngSub].mkv
388.02 MB 2018-10-06 17:39:59 3 0
All [60mbAnime.com] Fairy Tail Final Season - 278 [480...
189.31 MB 2018-10-07 04:56:29 3 0

Comments:
No comments still posted
Loading...
Powered by TT | Page Generated In 0.042604 secs.
| RSS Feed | Feed Info