[Login] or [Signup]

First Cams

Xvid/x264



Non-English

Loading...

Dhadak 2018 Hindi 720p WEBRip x264 ESub [MW]


Complete Name :Dhadak 2018 Hindi 720p WEBRip x264 ESub [MW]
Download torrent:    Dhadak 2018 Hindi 720p WEBRip x264 ESub [MW].torrent
Info Hash:6950b1a501293b576301a3cfbe1444c6da615249
Category:Movies  > Non-English
Torrent language:Hindi  
Seeds | Leech:614 | 441
Complete: 2,821
Health:
Total Size:1.26 GB
Downloaded:12 Times
Added By:      MovieFreak
Date Added:05-10-2018 12:35:pm | Last Edit:  06-10-2018 07:28:pm

 

IMDB
Dhadak
Dhadak Released 20 Jul 2018

Genre Drama, Romance

Director Shashank Khaitan

Writer Shashank Khaitan (screenplay), Nagraj Manjule (story)

Actors Ishaan Khattar, Janhvi Kapoor, Ashutosh Rana, Ishika Gagneja

Plot Set in Rajasthan, this love story explores how the protagonists deal with issues like differences between castes and honor killings.

Link http://www.imdb.com/title/tt7638344

Last Updated 16-11-2018 14:28:36
4.3

Votes 7,156

Main Technical Comments




General
Format                                   : Matroska
Format version                           : Version 4 / Version 2
File size                                : 1.26 GiB
Duration                                 : 2 h 17 min
Overall bit rate                         : 1 309 kb/s

Video
ID                                       : 1
Format                                   : AVC
Format/Info                              : Advanced Video Codec
Format profile                           : [email protected]
Format settings                          : CABAC / 5 Ref Frames
Format settings, CABAC                   : Yes
Format settings, RefFrames               : 5 frames
Codec ID                                 : V_MPEG4/ISO/AVC
Duration                                 : 2 h 17 min
Bit rate                                 : 1 200 kb/s
Width                                    : 1 280 pixels
Height                                   : 542 pixels
Display aspect ratio                     : 2.35:1
Frame rate mode                          : Constant
Frame rate                               : 24.000 FPS
Color space                              : YUV
Chroma subsampling                       : 4:2:0
Bit depth                                : 8 bits
Scan type                                : Progressive
Bits/(Pixel*Frame)                       : 0.072
Stream size                              : 1.13 GiB (90%)
Writing library                          : x264 core 155 r2901 7d0ff22
Default                                  : Yes
Forced                                   : No

Audio
ID                                       : 2
Format                                   : AAC
Format/Info                              : Advanced Audio Codec
Format profile                           : LC
Codec ID                                 : A_AAC-2
Duration                                 : 2 h 17 min
Bit rate                                 : 126 kb/s
Channel(s)                               : 2 channels
Channel positions                        : Front: L R
Sampling rate                            : 48.0 kHz
Frame rate                               : 46.875 FPS (1024 SPF)
Compression mode                         : Lossy
Stream size                              : 124 MiB (10%)
Language                                 : Hindi
Default                                  : Yes
Forced                                   : No

Text
ID                                       : 3
Format                                   : UTF-8
Codec ID                                 : S_TEXT/UTF8
Codec ID/Info                            : UTF-8 Plain Text
Duration                                 : 2 h 7 min
Bit rate                                 : 40 b/s
Count of elements                        : 1436
Stream size                              : 38.2 KiB (0%)
Default                                  : Yes
Forced                                   : No


https://pichub.site/image/EWxwV
https://pichub.site/image/EWUj0
https://pichub.site/image/EW0xT
https://pichub.site/image/EWLTN
https://pichub.site/image/EWpmZ
https://pichub.site/image/EWoED

........................................................................


Loading...


Trackers:
udp://tracker.coppersurfer.tk:6969/announce

Dhadak 2018 Hindi 720p WEBRip x264 ESub [MW]
Files
Dhadak 2018 Hindi 720p WEBRip x264 ESub [MW].mkv1.26 GB


Similar Torrents
Type Name Size Added S L
h.264/x264 Dhadak 2018 Hindi 720p Pre-DVDRip x264 AAC { TaRa ...
1.00 GB 2018-07-21 08:13:53 1554 681
Non-English mkvCinemas.live - Dhadak 2018 HDTVRip Hindi 720p x...
1.19 GB 2018-09-30 18:59:49 1207 1081
Non-English Dhadak 2018 Hindi 720p Pre DVDRip x264 AAC [MW]
1.03 GB 2018-07-22 10:02:52 1089 124
Cam/TS Dhadak 2018 Hindi Movies PDVDRip x264 Clean Audio ...
706.42 MB 2018-07-21 17:59:50 821 416
h.264/x264 Dhadak 2018 Hindi 480p PRE-DVDRip x264 AAC { TaRa ...
692.08 MB 2018-07-20 19:12:55 504 151
Non-English Dhadak 2018 WebRip Hindi 720p x264 AAC 5.1 ESub - ...
1.17 GB 2018-10-04 09:59:23 435 369
Non-English Dhadak 2018 Hindi 1080p WEBRip DD 5.1 x264 ESub [M...
2.74 GB 2018-10-05 11:33:41 276 238
Dubs/Dual Audio Dhadak 2018 x264 720p HD Esub Hindi GOPISAHI
684.37 MB 2018-10-04 12:15:16 144 97
Cam/TS Dhadak 2018 Hindi PRE-X264-AC3 5.1-Zi$t
1.17 GB 2018-07-21 06:21:06 117 46
Cam/TS Dhadak 2018.Hindi.720p.Pre.DVDRip.X264.AAC.With.Sa...
925.82 MB 2018-07-22 18:46:30 62 23

Comments:
No comments still posted
Loading...
Powered by TT | Page Generated In 0.285065 secs.
| RSS Feed | Feed Info