Warning! Use a VPN When Downloading Torrents!
Your IP Address is .   Location is
Your Internet Provider is tracking your torrent activity!  Hide your IP ADDRESS with a VPN!
We strongly recommend using Trust.Zone VPN to anonymize your torrenting. It's FREE!
Get VPN Now for FREE!
First Cams

Xvid/x264



Non-English

Site Friends
      ETTV

      WorldWide Torrents

      Free Tutorials

      Aiosearch


Loading...

Solo A Star Wars Story 2018 1080p BluRay AC3 5.1 x264 [MW]


Download torrent:      
Info Hash:  81d94796cefa11b0fad6c18f7f4fc1b7c5a9a5e5
Category:  Movies  > HD
Torrent language:  English  
Seeds | Leech:  1,597 | 2,762
Complete:   5,283
Health:   
Total Size:  3.44 GB
Added By:        MovieFreak
Date Added:  11-09-2018 02:33:pm | Last Edit:  27-01-2019 02:01:am

Un système d'onglets en javascript
Description Trackers Files Comments Download




General
Format                                   : Matroska
Format version                           : Version 4 / Version 2
File size                                : 3.44 GiB
Duration                                 : 2 h 14 min
Overall bit rate                         : 3 658 kb/s

Video
ID                                       : 1
Format                                   : AVC
Format/Info                              : Advanced Video Codec
Format profile                           : [email protected]
Format settings                          : CABAC / 4 Ref Frames
Format settings, CABAC                   : Yes
Format settings, RefFrames               : 4 frames
Codec ID                                 : V_MPEG4/ISO/AVC
Duration                                 : 2 h 14 min
Bit rate                                 : 3 200 kb/s
Width                                    : 1 920 pixels
Height                                   : 804 pixels
Display aspect ratio                     : 2.40:1
Frame rate mode                          : Constant
Frame rate                               : 23.976 (24000/1001) FPS
Color space                              : YUV
Chroma subsampling                       : 4:2:0
Bit depth                                : 8 bits
Scan type                                : Progressive
Bits/(Pixel*Frame)                       : 0.086
Stream size                              : 3.02 GiB (88%)
Writing library                          : x264 core 155 r2901 7d0ff22
Default                                  : Yes
Forced                                   : No

Audio
ID                                       : 4
Format                                   : AC-3
Format/Info                              : Audio Coding 3
Codec ID                                 : A_AC3
Duration                                 : 2 h 14 min
Bit rate mode                            : Constant
Bit rate                                 : 448 kb/s
Channel(s)                               : 6 channels
Channel positions                        : Front: L C R, Side: L R, LFE
Sampling rate                            : 48.0 kHz
Frame rate                               : 31.250 FPS (1536 SPF)
Bit depth                                : 16 bits
Compression mode                         : Lossy
Stream size                              : 432 MiB (12%)
Language                                 : English
Service kind                             : Complete Main
Default                                  : Yes
Forced                                   : No

Text #1
ID                                       : 2
Format                                   : UTF-8
Codec ID                                 : S_TEXT/UTF8
Codec ID/Info                            : UTF-8 Plain Text
Duration                                 : 2 h 5 min
Bit rate                                 : 56 b/s
Count of elements                        : 1957
Stream size                              : 51.9 KiB (0%)
Title                                    : English
Language                                 : English
Default                                  : Yes
Forced                                   : No

Text #2
ID                                       : 3
Format                                   : UTF-8
Codec ID                                 : S_TEXT/UTF8
Codec ID/Info                            : UTF-8 Plain Text
Duration                                 : 2 h 5 min
Bit rate                                 : 63 b/s
Count of elements                        : 2232
Stream size                              : 58.5 KiB (0%)
Title                                    : English-SDH
Language                                 : English
Default                                  : No
Forced                                   : No


https://pichub.site/image/DFbDg
https://pichub.site/image/DFQHZ
https://pichub.site/image/DFjnX
https://pichub.site/image/DFemI
https://pichub.site/image/DQ4Y8
https://pichub.site/image/DQfzJ



Similar Torrents
Type Name Size Added S L
Divx/Xvid Solo.A.Star.Wars.Story.2018.BRRip.XviD.AC3-EVO
1.54 GB 2018-09-09 18:43:23 59453 14867
HD Solo A Star Wars Story 2018 720p BluRay x264 ESub ...
1.23 GB 2018-09-10 08:51:35 10371 2423
Cam/TS Solo A Star Wars Story 2018 NEW 720p HD-TS X264-CP...
2.85 GB 2018-05-30 15:00:11 8085 3031
h.264/x264 Solo A Star Wars Story 2018 BluRay 1080p-H264-AC3-...
2.31 GB 2018-09-10 10:44:00 5164 819
Divx/Xvid Solo.A.Star.Wars.Story.2018.BRRip.XViD.AC3-ETRG
1.51 GB 2018-09-09 22:12:30 3928 1567
h.264/x264 Solo.A.Star.Wars.Story.2018.BRRip.AC3.X264-CMRG[Et...
1.75 GB 2018-09-09 19:32:48 1238 228
HD Solo.A.Star.Wars.Story.2018.BluRay.1080p.x264.DTS-...
17.92 GB 2018-09-11 02:51:43 1233 2432
HD Solo A Star Wars Story (2018).1080p.H264.italian.e...
3.42 GB 2018-09-20 21:51:01 1182 824
Cam/TS Solo A Star Wars Story 2018 NEW HDTS XViD.AC3-ETRG
1.34 GB 2018-05-30 22:55:12 962 358
HD Solo.A.Star.Wars.Story.2018.720p.BluRay.x264-NeZu
1.21 GB 2018-09-10 14:09:25 901 313

Loading...


Trackers:
udp://tracker.coppersurfer.tk:6969/announce

Solo A Star Wars Story 2018 1080p BluRay AC3 5.1 x264 [MW]
Files
Solo A Star Wars Story 2018 1080p BluRay AC3 5.1 x264 [MW].mkv (3.44 GB)


Comments:
No comments still posted
Loading...
Powered by TT | Page Generated In 0.159833 secs.
| RSS Feed | Feed Info