[Login] or [Signup]

First Cams

Xvid/x264



Non-English

Loading...

Deep Blue Sea 2(2018)480p Blu-Ray Rip[DaScubaDude]

 Download:  
 Info Hash:32bce4533a7c61107f394ca6a8fe02a0312b36d9
 Category:Movies > h.264/x264
 Seeds: 111
 Leechers: 15
 Health:
 Lang:English  English
 Total Size:660.18 MB
 Added By:dascubadude
 Date Added:19-08-2018 08:03:04

 

IMDB
Deep Blue Sea 2
Deep Blue Sea 2 Released 17 Apr 2018

Genre Action, Horror, Sci-Fi

Director Darin Scott

Writer Duncan Kennedy (based on characters created by), Donna Powers (based on characters created by), Wayne Powers (based on characters created by), Hans Rodionoff (story by), Hans Rodionoff (teleplay by), Erik Patterson (teleplay by), Jessica Scott (teleplay by)

Actors Danielle Savre, Rob Mayes, Michael Beach, Nathan Lynn

Plot A brilliant billionaire named Carl Durant is experimenting on bull sharks, which soon rebel to cause havoc for a group of scientists.

Link http://www.imdb.com/title/tt7086706

Last Updated 25-09-2018 10:35:30
3.2

Votes 3,344

Details
Description:
https://www.imdb.com/title/tt7086706/?ref_=nv_sr_2
https://www.youtube.com/watch?v=nF465jHpqXk
General
Complete name                            : Deep Blue Sea 2\Title00-1.m4v
Format                                   : MPEG-4
Format profile                           : Base Media / Version 2
Codec ID                                 : mp42 (isom/iso2/avc1/mp41)
File size                                : 656 MiB
Duration                                 : 1 h 33 min
Overall bit rate mode                    : Variable
Overall bit rate                         : 976 kb/s
Encoded date                             : UTC 2018-08-17 23:05:34
Tagged date                              : UTC 2018-08-17 23:05:34
Writing application                      : HandBrake 1.1.1 2018061800

Video
ID                                       : 1
Format                                   : AVC
Format/Info                              : Advanced Video Codec
Format profile                           : [email protected]
Format settings                          : CABAC / 4 Ref Frames
Format settings, CABAC                   : Yes
Format settings, RefFrames               : 4 frames
Codec ID                                 : avc1
Codec ID/Info                            : Advanced Video Coding
Duration                                 : 1 h 33 min
Bit rate                                 : 809 kb/s
Width                                    : 720 pixels
Height                                   : 480 pixels
Display aspect ratio                     : 16:9
Original display aspect ratio            : 16:9
Frame rate mode                          : Variable
Frame rate                               : 23.976 FPS
Minimum frame rate                       : 15.152 FPS
Maximum frame rate                       : 23.981 FPS
Color space                              : YUV
Chroma subsampling                       : 4:2:0
Bit depth                                : 8 bits
Scan type                                : Progressive
Bits/(Pixel*Frame)                       : 0.098
Stream size                              : 544 MiB (83%)
Writing library                          : x264 core 155 r2901 7d0ff22
Encoding settings                        : cabac=1 / ref=1 / deblock=1:0:0 / analyse=0x1:0x111 / me=hex / subme=2 / psy=1 / psy_rd=1.00:0.00 / mixed_ref=0 / me_range=16 / chroma_me=1 / trellis=0 / 8x8dct=0 / cqm=0 / deadzone=21,11 / fast_pskip=1 / chroma_qp_offset=0 / threads=3 / lookahead_threads=1 / sliced_threads=0 / nr=0 / decimate=1 / interlaced=0 / bluray_compat=0 / constrained_intra=0 / bframes=3 / b_pyramid=2 / b_adapt=1 / b_bias=0 / direct=1 / weightb=1 / open_gop=0 / weightp=1 / keyint=240 / keyint_min=24 / scenecut=40 / intra_refresh=0 / rc_lookahead=10 / rc=crf / mbtree=1 / crf=22.0 / qcomp=0.60 / qpmin=0 / qpmax=69 / qpstep=4 / vbv_maxrate=14000 / vbv_bufsize=14000 / crf_max=0.0 / nal_hrd=none / filler=0 / ip_ratio=1.40 / aq=1:1.00
Encoded date                             : UTC 2018-08-17 23:05:34
Tagged date                              : UTC 2018-08-17 23:05:34
Color range                              : Limited
Color primaries                          : BT.601 NTSC
Transfer characteristics                 : BT.709
Matrix coefficients                      : BT.601
Menus                                    : 3

Audio
ID                                       : 2
Format                                   : AAC
Format/Info                              : Advanced Audio Codec
Format profile                           : LC
Codec ID                                 : mp4a-40-2
Duration                                 : 1 h 33 min
Bit rate mode                            : Variable
Bit rate                                 : 160 kb/s
Channel(s)                               : 2 channels
Channel positions                        : Front: L R
Sampling rate                            : 48.0 kHz
Frame rate                               : 46.875 FPS (1024 SPF)
Compression mode                         : Lossy
Stream size                              : 108 MiB (16%)
Title                                    : Stereo / Stereo
Language                                 : English
Default                                  : Yes
Alternate group                          : 1
Encoded date                             : UTC 2018-08-17 23:05:34
Tagged date                              : UTC 2018-08-17 23:05:34
Menus                                    : 3

Menu
ID                                       : 3
Codec ID                                 : text
Duration                                 : 1 h 33 min
Language                                 : English
Encoded date                             : UTC 2018-08-17 23:05:34
Tagged date                              : UTC 2018-08-17 23:05:34
Menu For                                 : 1,2
00:00:00.000                             : Chapter 1
00:09:24.755                             : Chapter 2
00:19:46.376                             : Chapter 3
00:30:53.042                             : Chapter 4
00:40:03.759                             : Chapter 5
00:49:44.506                             : Chapter 6
01:00:18.389                             : Chapter 7
01:10:10.397                             : Chapter 8
01:19:39.549                             : Chapter 9
01:30:03.130                             : Chapter 10
Bit rate mode                            : VBR



Loading...

Ratings:Not Yet Rated (Log in to rate it)

Tracker:
udp://tracker.openbittorrent.com:80/announce


File List: 


Similar Torrents
Type Name Size Added S L
Divx/Xvid Deep Blue Sea 2.2018.DVDRip.XviD.AC3-EVO
1.40 GB 2018-04-08 14:59:24 1527 4014
HD Deep Blue Sea 2 2018 1080p BRRip x264 ESub [MW]
1.80 GB 2018-04-16 09:49:53 947 512
HD Deep Blue Sea 2 2018 1080p BluRay DTS x264-HELLGAT...
9.43 GB 2018-04-15 20:19:27 641 547
HD Deep Blue Sea 2 2018 720p BRRip x264 ESub [MW]
993.60 MB 2018-04-16 09:49:02 156 35
Audio books Cath Crowley - Words in Deep Blue [audio]
186.69 MB 2018-06-06 16:50:21 6 18

Comments

No comments still posted

Loading...
Powered by TT | Page Generated In 0.231282 secs.
| RSS Feed | Feed Info