Warning! Use a VPN When Downloading Torrents!
Your IP Address is .   Location is
Your Internet Provider is tracking your torrent activity!  Hide your IP ADDRESS with a VPN!
We strongly recommend using Trust.Zone VPN to anonymize your torrenting. It's FREE!
Get VPN Now for FREE!
First Cams

Xvid/x264



Non-English

Site Friends
      ETTV

      WorldWide Torrents

      Free Tutorials

      Aiosearch


Loading...

Keane - Under The Iron Sea (2006) Flac


Download torrent:      
Info Hash:  a9609cffaa3e06c74ff6e6f503f705eb076ce6b9
Category:  Music  > Audio
Torrent language:  English  
Seeds | Leech:  95 | 6
Complete:   337
Health:   
Total Size:  361.53 MB
Added By:        was95
Date Added:  11-06-2019 04:07:pm | Last Edit:  12-06-2019 10:53:am

Un système d'onglets en javascript
Description Trackers Files Comments Download


Quality-Lossless
Release-2006
Duration-00:50:23
File Size-379.1 MB
Genre-Alternative Rock
Cover Size-1200px

----------------------------------------------------------------------------------------------
Analyzed: Under the Iron Sea /  Artist: Keane
----------------------------------------------------------------------------------------------
DR Peak RMS Duration Title [codec]
----------------------------------------------------------------------------------------------
DR6 -0.30 dB -9.23 dB 4:12 01 - Atlantic [flac]
DR5 -0.30 dB -6.64 dB 3:06 02 - Is It Any Wonder? [flac]
DR6 -0.30 dB -8.38 dB 4:00 03 - Nothing in My Way [flac]
DR5 -0.29 dB -6.76 dB 3:58 04 - Leaving So Soon? [flac]
DR5 -0.29 dB -8.01 dB 5:05 05 - A Bad Dream [flac]
DR9 -0.30 dB -12.08 dB 4:37 06 - Hamburg Song [flac]
DR6 -0.29 dB -7.77 dB 3:35 07 - Put It Behind You [flac]
DR9 -0.32 dB -12.18 dB 2:56 08 - The Iron Sea [flac]
DR5 -0.29 dB -6.85 dB 3:53 09 - Crystal Ball [flac]
DR6 -0.30 dB -10.19 dB 4:26 10 - Try Again [flac]
DR6 -0.30 dB -8.33 dB 6:07 11 - Broken Toy [flac]
DR5 -0.29 dB -7.42 dB 4:21 12 - The Frog Prince [flac]
----------------------------------------------------------------------------------------------
Number of files:    12
Official DR value:  DR6

Sampling rate: 44100 Hz
Average bitrate: 999kbs
Bits per sample: 16 bit


Loading...


Trackers:
udp://tracker.piratepublic.com:1337/announce

This Torrent also has backup trackers
URLSeedersLeechersCompleted
http://p4p.arenabg.com:1337/announce000
http://tracker.internetwarriors.net:1337/announce000

Keane - Under The Iron Sea (2006) Flac
Files
01 - Atlantic.flac (28.50 MB)
02 - Is It Any Wonder.flac (24.64 MB)
03 - Nothing in My Way.flac (29.86 MB)
04 - Leaving So Soon.flac (31.38 MB)
05 - A Bad Dream.flac (38.04 MB)
06 - Hamburg Song.flac (25.61 MB)
07 - Put It Behind You.flac (28.81 MB)
08 - The Iron Sea.flac (16.40 MB)
09 - Crystal Ball.flac (30.66 MB)
10 - Try Again.flac (29.47 MB)
11 - Broken Toy.flac (43.31 MB)
12 - The Frog Prince.flac (34.05 MB)
cover.jpg (130.14 kB)
dr14.txt (1.40 kB)
Lyrics/01 - Atlanic.jpg (41.98 kB)
Lyrics/02 - Is It Any Wonder.jpg (80.80 kB)
Lyrics/03 - Nothing In My Way.jpg (68.32 kB)
Lyrics/04 - Leaving So Soon.jpg (71.91 kB)
Lyrics/05 - A Bad Dream.jpg (67.35 kB)
Lyrics/06 - Hamburg Song.jpg (60.96 kB)
Lyrics/07 - Put It Behind You.jpg (71.41 kB)
Lyrics/09 - Crystal Ball.jpg (60.47 kB)
Lyrics/10 - Try Again.jpg (45.17 kB)
Lyrics/11 - Broken Toy.jpg (62.72 kB)
Lyrics/12 - The Frog Prince.jpg (70.20 kB)
Torrent Downloaded from Glodls.to.txt (237.00 B)
Torrent downloaded from limetorrents.cc.txt (82.00 B)
Torrent Downloaded from worldwidetorrents.to (90.00 B)
[TGx]Downloaded from torrentgalaxy.org .txt (587.00 B)


Comments:
No comments still posted
Loading...
Powered by TT | Page Generated In 0.156248 secs.
| RSS Feed | Feed Info