Warning! Use a VPN When Downloading Torrents!
Your IP Address is .   Location is
Your Internet Provider is tracking your torrent activity!  Hide your IP ADDRESS with a VPN!
We strongly recommend using Trust.Zone VPN to anonymize your torrenting. It's FREE!
Get VPN Now for FREE!
First Cams

Xvid/x264



Non-English

Site Friends
      ETTV

      WorldWide Torrents

      Free Tutorials

      Aiosearch


Loading...

Jamie Cullum - Taller (2019) Flac


Download torrent:      
Info Hash:  603635e30c3454edd2e1b66a9c4bdb66a00d7df2
Category:  Music  > Audio
Torrent language:  English  
Seeds | Leech:  115 | 46
Complete:   1,196
Health:   
Total Size:  213.98 MB
Added By:        was95
Date Added:  11-06-2019 03:59:pm | Last Edit:  12-06-2019 09:29:am

Un système d'onglets en javascript
Description Trackers Files Comments Download


Quality-Lossless
Release-2019
Duration-00:39:11
File Size-224.4 MB
Genre-Pop
Cover Size-1400px

----------------------------------------------------------------------------------------------
Analyzed: Taller /  Artist: Jamie Cullum
----------------------------------------------------------------------------------------------
DR Peak RMS Duration Title [codec]
----------------------------------------------------------------------------------------------
DR7 -0.49 dB -9.44 dB 3:35 01 - Taller [flac]
DR10 -0.59 dB -14.81 dB 4:49 02 - Life Is Grey [flac]
DR7 -0.43 dB -9.73 dB 4:19 03 - Mankind [flac]
DR6 -0.40 dB -8.32 dB 3:33 04 - Usher [flac]
DR7 -0.53 dB -12.21 dB 5:24 05 - The Age Of Anxiety [flac]
DR6 -0.39 dB -11.84 dB 3:25 06 - For The Love [flac]
DR7 -0.51 dB -10.91 dB 3:49 07 - Drink [flac]
DR11 -0.81 dB -15.98 dB 3:08 08 - You Can't Hide Away From Love [flac]
DR7 -0.46 dB -10.78 dB 4:00 09 - Monster [flac]
DR12 -0.59 dB -16.92 dB 3:08 10 - Endings Are Beginnings [flac]
----------------------------------------------------------------------------------------------
Number of files:    10
Official DR value:  DR8

Sampling rate: 44100 Hz
Average bitrate: 756kbs
Bits per sample: 16 bit


Loading...


Trackers:
udp://tracker.piratepublic.com:1337/announce

This Torrent also has backup trackers
URLSeedersLeechersCompleted
http://p4p.arenabg.com:1337/announce000
http://tracker.internetwarriors.net:1337/announce000

Jamie Cullum - Taller (2019) Flac
Files
01 - Taller.flac (22.03 MB)
02 - Life Is Grey.flac (24.19 MB)
03 - Mankind.flac (23.45 MB)
04 - Usher.flac (23.96 MB)
05 - The Age Of Anxiety.flac (29.88 MB)
06 - For The Love.flac (16.99 MB)
07 - Drink.flac (22.76 MB)
08 - You Can't Hide Away From Love.flac (14.62 MB)
09 - Monster.flac (22.35 MB)
10 - Endings Are Beginnings.flac (13.42 MB)
cover.jpg (335.47 kB)
dr14.txt (1.28 kB)
Torrent Downloaded from Glodls.to.txt (237.00 B)
Torrent downloaded from limetorrents.cc.txt (82.00 B)
Torrent Downloaded from worldwidetorrents.to (90.00 B)
[TGx]Downloaded from torrentgalaxy.org .txt (587.00 B)


Comments:
No comments still posted
Loading...
Powered by TT | Page Generated In 0.625264 secs.
| RSS Feed | Feed Info