Warning! Use a VPN When Downloading Torrents!
Your IP Address is .   Location is
Your Internet Provider is tracking your torrent activity!  Hide your IP ADDRESS with a VPN!
We strongly recommend using Trust.Zone VPN to anonymize your torrenting. It's FREE!
Get VPN Now for FREE!
First Cams

Xvid/x264



Non-English

Site Friends
      ETTV

      WorldWide Torrents

      Free Tutorials

      Aiosearch


Loading...

The Wild - Uno zoo in fuga (2006).720p.H264.italian.english.Ac3-5.1-mltisub-MIRCrew


Download torrent:      
Info Hash:  289bee7405cf8b2b9e5e3b4d92db4c5aa26187ff
Category:  Movies  > HD
Torrent language:  English  
Seeds | Leech:  130 | 59
Complete:   652
Health:   
Total Size:  1.46 GB
Added By:        robbyrs
Date Added:  26-05-2019 05:48:pm | Last Edit:  27-05-2019 12:23:pm

Un système d'onglets en javascript
Description Trackers Files Comments Download
The Wild - Uno zoo in fuga (2006).720p.H264.italian.english.Ac3-5.1-mltisub-MIRCrew


NO FOUND ONLY ORIGINAL RELEASE

My release is always in double track audio italian and Original audio
for select it use VLC or dvd player home
not use wmp

Uno zoo in fuga - The Wild (2006)

Quality MIRCrew on HD 720p da  1,5 gb









Titolo originale The Wild
Paese di produzione Stati Uniti d'America
Anno 2006
Durata 78 min
Genere animazione, commedia, avventura
Regia Steve "Spaz" Williams
Soggetto Mark Gibson, Philip Halprin
Sceneggiatura Ed Decter, John J. Strauss, Mark Gibson, Philip Halprin
Montaggio Scott Balcerek, Steven L. Wagner
Musiche Alan Silvestri
Art director Chris Farmer, Michael E. Goldman


*******************************



Samson e Ryan sono due leoni, padre e figlio che vivono assieme allo zoo di New York. Stanco di rimanere all'ombra del padre, Ryan sogna di vivere le avventure che il padre, protagonista a suo dire di numerose e leggendarie imprese, gli racconta ogni giorno



An adolescent lion is accidentally shipped from the New York Zoo to Africa. Now running free, his zoo pals must put aside their differences to help bring him back.







General
Unique ID                                : 154665260951256236355340998106339723685 (0x745B721C29FE0162302323E8C8A1C9A5)
Complete name                            : Uno zoo in fuga - The Wild (2006).720p.h264.ita.eng.multisub-MIRCrew\Uno zoo in fuga - The Wild (2006).720p.h264.ita.eng.multisub-MIRCrew.mkv
Format                                   : Matroska
Format version                           : Version 2
File size                                : 1.46 GiB
Duration                                 : 1h 21mn
Overall bit rate                         : 2 560 Kbps
Movie name                               : MIRCrew
Encoded date                             : UTC 2017-12-06 12:39:22
Writing application                      : Lavf54.63.100
Writing library                          : Lavf54.63.100

Video
ID                                       : 1
Format                                   : AVC
Format/Info                              : Advanced Video Codec
Format profile                           : [email protected]
Format settings, CABAC                   : Yes
Format settings, ReFrames                : 2 frames
Codec ID                                 : V_MPEG4/ISO/AVC
Duration                                 : 1h 21mn
Bit rate                                 : 1 800 Kbps
Width                                    : 1 280 pixels
Height                                   : 720 pixels
Display aspect ratio                     : 16:9
Frame rate mode                          : Variable
Frame rate                               : 23.976 fps
Color space                              : YUV
Chroma subsampling                       : 4:2:0
Bit depth                                : 8 bits
Scan type                                : Progressive
Bits/(Pixel*Frame)                       : 0.081
Stream size                              : 1 016 MiB (68%)
Writing library                          : x264 core 130 r2273
Encoding settings                        : cabac=1 / ref=2 / deblock=1:0:0 / analyse=0x1:0x131 / me=hex / subme=7 / psy=1 / psy_rd=1.00:0.00 / mixed_ref=0 / me_range=16 / chroma_me=1 / trellis=1 / 8x8dct=0 / cqm=0 / deadzone=21,11 / fast_pskip=1 / chroma_qp_offset=-2 / threads=6 / lookahead_threads=1 / sliced_threads=0 / nr=0 / decimate=1 / interlaced=0 / bluray_compat=0 / constrained_intra=0 / bframes=3 / b_pyramid=0 / b_adapt=1 / b_bias=0 / direct=3 / weightb=1 / open_gop=0 / weightp=2 / keyint=230 / keyint_min=23 / scenecut=40 / intra_refresh=0 / rc_lookahead=40 / rc=abr / mbtree=1 / bitrate=1800 / ratetol=1.0 / qcomp=0.60 / qpmin=10 / qpmax=69 / qpstep=4 / vbv_maxrate=24000 / vbv_bufsize=24000 / nal_hrd=none / ip_ratio=1.40 / aq=1:1.00
Language                                 : Italian
Default                                  : Yes
Forced                                   : No
DURATION                                 : 01:21:35.933000000
NUMBER_OF_FRAMES                         : 117385
NUMBER_OF_BYTES                          : 11744271043
_STATISTICS_WRITING_APP                  : mkvmerge v18.0.0 ('Apricity') 64-bit
_STATISTICS_WRITING_DATE_UTC             : 2017-12-06 12:39:22
_STATISTICS_TAGS                         : BPS DURATION NUMBER_OF_FRAMES NUMBER_OF_BYTES

Audio #1
ID                                       : 2
Format                                   : AC-3
Format/Info                              : Audio Coding 3
Mode extension                           : CM (complete main)
Codec ID                                 : A_AC3
Duration                                 : 1h 21mn
Bit rate mode                            : Constant
Bit rate                                 : 384 Kbps
Channel(s)                               : 6 channels
Channel positions                        : Front: L C R, Side: L R, LFE
Sampling rate                            : 48.0 KHz
Bit depth                                : 16 bits
Compression mode                         : Lossy
Delay relative to video                  : 1mn 5s
Stream size                              : 224 MiB (15%)
Title                                    : Ita Ac3 5.1
Language                                 : Italian
Default                                  : Yes
Forced                                   : No
DURATION                                 : 01:21:35.968000000
NUMBER_OF_FRAMES                         : 152999
NUMBER_OF_BYTES                          : 235006464
_STATISTICS_WRITING_APP                  : mkvmerge v18.0.0 ('Apricity') 64-bit
_STATISTICS_WRITING_DATE_UTC             : 2017-12-06 12:39:22
_STATISTICS_TAGS                         : BPS DURATION NUMBER_OF_FRAMES NUMBER_OF_BYTES

Audio #2
ID                                       : 3
Format                                   : AC-3
Format/Info                              : Audio Coding 3
Mode extension                           : CM (complete main)
Codec ID                                 : A_AC3
Duration                                 : 1h 21mn
Bit rate mode                            : Constant
Bit rate                                 : 384 Kbps
Channel(s)                               : 6 channels
Channel positions                        : Front: L C R, Side: L R, LFE
Sampling rate                            : 48.0 KHz
Bit depth                                : 16 bits
Compression mode                         : Lossy
Delay relative to video                  : 1mn 5s
Stream size                              : 224 MiB (15%)
Title                                    : Eng Ac3 5.1
Language                                 : English
Default                                  : No
Forced                                   : No
DURATION                                 : 01:21:35.968000000
NUMBER_OF_FRAMES                         : 152999
NUMBER_OF_BYTES                          : 235006464
_STATISTICS_WRITING_APP                  : mkvmerge v18.0.0 ('Apricity') 64-bit
_STATISTICS_WRITING_DATE_UTC             : 2017-12-06 12:39:22
_STATISTICS_TAGS                         : BPS DURATION NUMBER_OF_FRAMES NUMBER_OF_BYTES

Menu
00:00:00.000                             : :1. The Story
00:05:31.915                             : :2. Zoo's Closed
00:09:10.842                             : :3. Turtle Curling
00:11:05.999                             : :4. The Gazelles
00:15:37.562                             : :5. Losing Ryan
00:19:09.357                             : :6. The Pigeons
00:21:57.149                             : :7. New York
00:27:57.467                             : :8. The Sewers
00:31:11.870                             : :9. Sunrise
00:34:37.158                             : :10. Benny Returns
00:37:40.258                             : :11. The Wild
00:42:41.893                             : :12. The Truth
00:47:21.047                             : :13. The Wildebeests
00:50:52.258                             : :14. The Omen
00:53:59.695                             : :15. Ryan's Capture
01:00:49.312                             : :16. A Real Lion
01:04:13.892                             : :17. The Ritual
01:08:05.456                             : :18. Ryan's Roar
01:12:41.857                             : :19. Going Home
01:15:52.715                             : :20. Credits




Similar Torrents
Type Name Size Added S L
HD Video HD SSNI-485 dear sir or Madam, I amleaving the fa...
3.46 GB 2019-05-31 16:42:39 7844 9419
Video NNPJ-329 first Blowjob The first time up The firs...
1.51 GB 2019-03-23 12:42:06 1660 2724
h.264/x264 Enter.The.Wild.2018.HDRip.XviD.AC3-EVO[EtMovies]
1.28 GB 2018-08-14 08:30:22 1285 398
Anime/Hentai [3D Hentai] Witches Of The Wilds - Episode 1 [Unce...
688.30 MB 2019-01-26 05:21:49 1175 380
Video BOBB-311 without it M breast classy look and contr...
1.36 GB 2019-05-01 17:14:12 1117 1878
Other The Legend of Zelda Breath of the Wild v1.5.0 + DL...
9.16 GB 2019-05-27 17:52:15 1035 1066
Video BOBB-311 without it M breast classy look and cont...
1.18 GB 2019-05-02 07:44:36 941 296
Ebooks The Wild Diet - Get Back to Your Roots, Burn Fat, ...
15.12 MB 2018-05-22 01:38:00 658 7
Ebooks 100 Deadly Skills - Survival Edition The SEAL Oper...
77.86 MB 2018-10-02 08:49:54 617 33
Divx/Xvid Enter.The.Wild.2018.HDRip.XviD.AC3-EVO
1.28 GB 2018-08-14 13:37:36 545 130

Loading...


Trackers:
udp://tracker.coppersurfer.tk:6969/announce

The Wild - Uno zoo in fuga (2006).720p.H264.italian.english.Ac3-5.1-mltisub-MIRCrew
Files
by MIRCrew.txt (76.00 B)
Uno zoo in fuga - The Wild (2006).720p.h264.ita.eng.multisub-MIRCrew.eng.srt (97.42 kB)
Uno zoo in fuga - The Wild (2006).720p.h264.ita.eng.multisub-MIRCrew.fre.srt (91.48 kB)
Uno zoo in fuga - The Wild (2006).720p.h264.ita.eng.multisub-MIRCrew.mkv (1.46 GB)
Uno zoo in fuga - The Wild (2006).720p.h264.ita.eng.multisub-MIRCrew.spa.srt (84.40 kB)


Comments:
No comments still posted
Loading...
Powered by TT | Page Generated In 0.164445 secs.
| RSS Feed | Feed Info