Warning! Use a VPN When Downloading Torrents!
Your IP Address is .   Location is
Your Internet Provider is tracking your torrent activity!  Hide your IP ADDRESS with a VPN!
We strongly recommend using Trust.Zone VPN to anonymize your torrenting. It's FREE!
Get VPN Now for FREE!
First Cams

Xvid/x264



Non-English

Site Friends
      ETTV

      WorldWide Torrents

      Free Tutorials

      Aiosearch


Loading...

Junglee 2019 720p WEBRip Hindi x264 AAC ESub.-.LHDm


Download torrent:      
Info Hash:  e4868e5bfdcca6333827605742a24b966659cebd
Category:  Movies  > HD
Torrent language:  Hindi  
Seeds | Leech:  1,430 | 971
Complete:   2,883
Health:   
Total Size:  1,001.47 MB
Added By:        LatestHDMovies
Date Added:  25-05-2019 10:22:pm | Last Edit:  26-05-2019 10:35:pm

IMDB
Junglee
Junglee Released 29 Mar 2019

Genre Action, Adventure, Thriller

Director Chuck Russell

Writer Adam Prince (screenplay), Chuck Russell, Ritesh Shah (story)

Actors Vidyut Jammwal, Asha Bhat, Vishwanath Chatterjee, Makrand Deshpande

Plot The story revolves around a vet, who on his homecoming to his father's elephant reserve, encounters and fights an international poachers racket.

Link http://www.imdb.com/title/tt7463730

Last Updated 16-06-2019 09:39:07
5.7

Votes 560

Un système d'onglets en javascript
Description Trackers Files Comments Download




https://latesthdmovies.club/junglee-2019-webrip/



No Website Tag No Watermark



General
Unique ID                   : 290551261151390928097335944938795411147 (0xDA96232E28EE42CCFBF833E723E1A6CB)
Complete name               : C:\Users\Administrator\Downloads\Junglee 2019 [WEBRip] [720p]\[LatestHDmovies.Club]-Junglee 2019 [WEBRip] [720p].mkv
Format                      : Matroska
Format version              : Version 4
File size                   : 1 001 MiB
Duration                    : 1 h 54 min
Overall bit rate            : 1 218 kb/s
Encoded date                : UTC 2019-05-25 14:04:33
Writing application         : mkvmerge v32.0.0 ('Astral Progressions') 32-bit
Writing library             : libebml v1.3.7 + libmatroska v1.5.0

Video
ID                          : 1
Format                      : AVC
Format/Info                 : Advanced Video Codec
Format profile              : [email protected]
Format settings             : CABAC / 4 Ref Frames
Format settings, CABAC      : Yes
Format settings, ReFrames   : 4 frames
Codec ID                    : V_MPEG4/ISO/AVC
Duration                    : 1 h 54 min
Bit rate                    : 1 106 kb/s
Width                       : 1 280 pixels
Height                      : 532 pixels
Display aspect ratio        : 2.40:1
Frame rate mode             : Constant
Frame rate                  : 25.000 FPS
Color space                 : YUV
Chroma subsampling          : 4:2:0
Bit depth                   : 8 bits
Scan type                   : Progressive
Bits/(Pixel*Frame)          : 0.065
Stream size                 : 894 MiB (89%)
Writing library             : x264 core 157
Encoding settings           : cabac=1 / ref=1 / deblock=1:0:0 / analyse=0x3:0x3 / me=dia / subme=1 / psy=1 / psy_rd=1.00:0.00 / mixed_ref=0 / me_range=16 / chroma_me=1 / trellis=0 / 8x8dct=1 / cqm=0 / deadzone=21,11 / fast_pskip=1 / chroma_qp_offset=0 / threads=17 / lookahead_threads=2 / sliced_threads=0 / nr=0 / decimate=1 / interlaced=0 / bluray_compat=0 / constrained_intra=0 / bframes=3 / b_pyramid=2 / b_adapt=1 / b_bias=0 / direct=1 / weightb=1 / open_gop=0 / weightp=1 / keyint=250 / keyint_min=25 / scenecut=40 / intra_refresh=0 / rc=abr / mbtree=0 / bitrate=1106 / ratetol=1.0 / qcomp=0.60 / qpmin=0 / qpmax=69 / qpstep=4 / ip_ratio=1.40 / pb_ratio=1.30 / aq=1:1.00
Default                     : Yes
Forced                      : No

Audio
ID                          : 2
Format                      : AAC LC
Format/Info                 : Advanced Audio Codec Low Complexity
Codec ID                    : A_AAC-2
Duration                    : 1 h 54 min
Bit rate                    : 128 kb/s
Channel(s)                  : 2 channels
Channel layout              : L R
Sampling rate               : 44.1 kHz
Frame rate                  : 43.066 FPS (1024 SPF)
Compression mode            : Lossy
Delay relative to video     : -46 ms
Stream size                 : 105 MiB (11%)
Language                    : Hindi
Default                     : Yes
Forced                      : No

Text
ID                          : 3
Format                      : UTF-8
Codec ID                    : S_TEXT/UTF8
Codec ID/Info               : UTF-8 Plain Text
Duration                    : 1 h 50 min
Bit rate                    : 36 b/s
Count of elements           : 1168
Stream size                 : 29.3 KiB (0%)
Language                    : English
Default                     : Yes
Forced                      : No








Similar Torrents
Type Name Size Added S L
HD Junglee (2019) Hindi 720p HDRip x264 AAC ESubs -Un...
916.51 MB 2019-05-25 02:09:55 8626 9908
Non-English Junglee 2019 Hindi PDVD Rip 700mb CineVood Exclusi...
859.24 MB 2019-03-29 20:26:55 3624 4240
Non-English Junglee 2019 WebRip Hindi 720p x264 AAC ESub - mkv...
917.32 MB 2019-05-25 07:23:05 2241 2672
Non-English Junglee 2019 Hindi NEW PDVD Rip 700mb CineVood Exc...
704.52 MB 2019-03-30 17:47:04 1408 887
HD Junglee (2019) Hindi - 720p WEB-DL - x264 - AAC 2....
1.29 GB 2019-06-04 16:02:54 1020 1261
Non-English Junglee 2019 Hindi Untouched PDVD CineVood Exclusi...
2.20 GB 2019-03-29 20:36:57 812 1867
HD Junglee 2019 x264 720p HD Esub Hindi GOPISAHI
654.85 MB 2019-05-25 09:33:34 729 813
HD Junglee (2019) Hindi 720p HDRip x264 AAC ESubs - D...
902.14 MB 2019-05-25 03:02:17 728 932
Cam/TS Junglee (2019) 720p Hindi PreDvDRip x264 AAC Full ...
910.66 MB 2019-03-30 06:50:23 645 449
Cam/TS Junglee (2019) 720p V2 Hindi Pre-DVDRip x264 Mp3 b...
994.97 MB 2019-04-02 11:15:56 415 340

Loading...


Trackers:
udp://tracker.pirateparty.gr:6969/announce

This Torrent also has backup trackers
URLSeedersLeechersCompleted
http://tracker.torrentyorg.pl:80/announce000
https://tracker.fastdownload.xyz:443/announce000
http://vps02.net.orel.ru:80/announce000

Junglee 2019 720p WEBRip Hindi x264 AAC ESub.-.LHDm
Files
[LatestHDmovies.Club]-Junglee 2019 [WEBRip] [720p].mkv (1,001.47 MB)


Comments:
No comments still posted
Loading...
Powered by TT | Page Generated In 0.855949 secs.
| RSS Feed | Feed Info