Warning! Use a VPN When Downloading Torrents!
Your IP Address is .   Location is
Your Internet Provider is tracking your torrent activity!  Hide your IP ADDRESS with a VPN!
We strongly recommend using Trust.Zone VPN to anonymize your torrenting. It's FREE!
Get VPN Now for FREE!
First Cams

Xvid/x264



Non-English

Site Friends
      ETTV

      WorldWide Torrents

      Free Tutorials

      Aiosearch


Loading...

Taarzan: The Wonder Car (2004) WEBRip Hindi x264 AAC.-.LHDm


Download torrent:      
Info Hash:  f5cd04789bac43255baeaf9e7ae9cc6fe6e1dc15
Category:  Movies  > HD
Torrent language:  Hindi  
Seeds | Leech:  223 | 212
Complete:   228
Health:   
Total Size:  1.33 GB
Added By:        LatestHDMovies
Date Added:  25-05-2019 05:17:am | Last Edit:  25-05-2019 04:01:pm

IMDB
Taarzan: The Wonder Car
Taarzan: The Wonder Car Released 06 Aug 2004

Genre Action, Fantasy, Thriller

Director Abbas Alibhai Burmawalla, Mastan Alibhai Burmawalla

Writer Lalit Mahajan (story and screenplay), Lalit Mahajan

Actors Vatsal Seth, Ayesha Takia, Ajay Devgn, Farida Jalal

Plot Devesh (Ajay Devgan) was Raj's father who was a futuristic car designer. He owned an old car, which was passed down to him from his father and he hoped to pass it on to his son, Raj. After ...

Link https://www.imdb.com/title/tt0435437/

Last Updated 17-06-2019 16:11:17
4.4

Votes 2,016

Un système d'onglets en javascript
Description Trackers Files Comments Download




https://latesthdmovies.club/taarzan-the-wonder-car-2004/




Enjoy: The Quality



General
Complete name               : C:\Users\Administrator\Downloads\Video\[LatestHDmovies.Club]-Taarzan The Wonder Car 2004 [WEBRip] [720p HQ].mp4
Format                      : MPEG-4
Format profile              : Base Media
Codec ID                    : isom (isom/iso2/avc1/mp41)
File size                   : 1.33 GiB
Duration                    : 2 h 36 min
Overall bit rate            : 1 213 kb/s
Movie name                  : Available on LatestHDmovies.Club
Writing application         : Lavf58.27.102

Video
ID                          : 1
Format                      : AVC
Format/Info                 : Advanced Video Codec
Format profile              : [email protected]
Format settings             : CABAC / 4 Ref Frames
Format settings, CABAC      : Yes
Format settings, ReFrames   : 4 frames
Codec ID                    : avc1
Codec ID/Info               : Advanced Video Coding
Duration                    : 2 h 36 min
Bit rate                    : 1 076 kb/s
Width                       : 1 280 pixels
Height                      : 538 pixels
Display aspect ratio        : 2.40:1
Original display aspect rat : 2.40:1
Frame rate mode             : Constant
Frame rate                  : 25.000 FPS
Color space                 : YUV
Chroma subsampling          : 4:2:0
Bit depth                   : 8 bits
Scan type                   : Progressive
Bits/(Pixel*Frame)          : 0.063
Stream size                 : 1.18 GiB (89%)
Title                       : LatestHDmovies.Club
Writing library             : x264 core 157
Encoding settings           : cabac=1 / ref=1 / deblock=1:0:0 / analyse=0x3:0x3 / me=dia / subme=1 / psy=1 / psy_rd=1.00:0.00 / mixed_ref=0 / me_range=16 / chroma_me=1 / trellis=0 / 8x8dct=1 / cqm=0 / deadzone=21,11 / fast_pskip=1 / chroma_qp_offset=0 / threads=17 / lookahead_threads=2 / sliced_threads=0 / nr=0 / decimate=1 / interlaced=0 / bluray_compat=0 / constrained_intra=0 / bframes=3 / b_pyramid=2 / b_adapt=1 / b_bias=0 / direct=1 / weightb=1 / open_gop=0 / weightp=1 / keyint=250 / keyint_min=25 / scenecut=40 / intra_refresh=0 / rc=abr / mbtree=0 / bitrate=1076 / ratetol=1.0 / qcomp=0.60 / qpmin=0 / qpmax=69 / qpstep=4 / ip_ratio=1.40 / pb_ratio=1.30 / aq=1:1.00
Codec configuration box     : avcC

Audio
ID                          : 2
Format                      : AAC LC
Format/Info                 : Advanced Audio Codec Low Complexity
Codec ID                    : mp4a-40-2
Duration                    : 2 h 36 min
Bit rate mode               : Constant
Bit rate                    : 128 kb/s
Channel(s)                  : 2 channels
Channel layout              : L R
Sampling rate               : 44.1 kHz
Frame rate                  : 43.066 FPS (1024 SPF)
Compression mode            : Lossy
Stream size                 : 144 MiB (11%)
Title                       : LatestHDmovies.Club
Language                    : English
Default                     : Yes
Alternate group             : 1














Loading...


Trackers:
udp://tracker.pirateparty.gr:6969/announce

This Torrent also has backup trackers
URLSeedersLeechersCompleted
http://tracker.torrentyorg.pl:80/announce000
https://tracker.fastdownload.xyz:443/announce000
http://vps02.net.orel.ru:80/announce000

Taarzan: The Wonder Car (2004) WEBRip Hindi x264 AAC.-.LHDm
Files
[LatestHDmovies.Club]-Taarzan The Wonder Car 2004 [WEBRip] [720p HQ].mp4 (1.33 GB)


Comments:
No comments still posted
Loading...
Powered by TT | Page Generated In 0.758839 secs.
| RSS Feed | Feed Info