Warning! Use a VPN When Downloading Torrents!
Your IP Address is .   Location is
Your Internet Provider is tracking your torrent activity!  Hide your IP ADDRESS with a VPN!
We strongly recommend using Trust.Zone VPN to anonymize your torrenting. It's FREE!
Get VPN Now for FREE!
First Cams

Xvid/x264



Non-English

Site Friends
      ETTV

      WorldWide Torrents

      Free Tutorials

      Aiosearch


Loading...

Reign of Fire - Il regno del fuoco (2002).720p.H264.italian.english.Ac3 5.1.sub.ita.eng-MIRCrew


Download torrent:      
Info Hash:  03d24ae952d192a21f3f1fbaf9e6de2578f72426
Category:  Movies  > HD
Torrent language:  English  
Seeds | Leech:  317 | 162
Complete:   1,378
Health:   
Total Size:  1.80 GB
Added By:        robbyrs
Date Added:  24-05-2019 09:05:pm | Last Edit:  25-05-2019 11:31:am

Un système d'onglets en javascript
Description Trackers Files Comments Download
Reign of Fire - Il regno del fuoco (2002).720p.H264.italian.english.Ac3 5.1.sub.ita.eng-MIRCrew


NO FOUND ONLY ORIGINAL RELEASE

My release is always in double track audio italian and Original audio
for select it use VLC or dvd player home
not use wmp

Il regno del fuoco - Reign of Fire (2002)

Quality MIRCrew on HD 720p da  1,8 gb











Titolo originale Reign of Fire
Lingua originale inglese
Paese di produzione Regno Unito, Irlanda, Stati Uniti d'America
Anno 2002
Durata 101 min
Rapporto 2.35 : 1
Genere azione, fantastico
Regia Rob Bowman
Soggetto Greg Chabot, Kevin Peterka
Sceneggiatura Greg Chabot, Kevin Peterka, Matt Greenberg





   Christian Bale: Quinn Abercromby
   Matthew McConaughey: Denton Van Zan
   Izabella Scorupco: Alex Jensen
   Gerard Butler: Creedy
   Scott Moutter: Jared Wilke
   David Kennedy: Eddie Stax
   Alexander Siddig: Ajay
   Ned Dennehy: Barlow
   Rory Keenan: Devon
   Terence Maynard: Gideon
   Doug Cockle: Goosh
   Randall Carlton: Burke
   Chris Kelly: Mead
   Laura Pyper: Lin
   Ben Thornton: Quinn da bambino
   Alice Krige: Karen Abercromby





Nel 2020 la situazione è del tutto insostenibile: il clima terrestre è denso di smog causato dal fuoco e la Terra è teatro di devastazione e desolazione.



A brood of fire-breathing dragons emerges from the earth and begins setting everything ablaze, establishing dominance over the planet.

Screenshot:





General
Unique ID                                : 275376847621530658680520394767938739024 (0xCF2BA6D4AA837E0C7682DAB378D5DB50)
Complete name                            : Il regno del fuoco - Reign of Fire (2002).720p.h264.ita.eng.sub.ita.eng-MIRCrew\Il regno del fuoco - Reign of Fire (2002).720p.h264.ita.eng.sub.ita.eng-MIRCrew.mkv
Format                                   : Matroska
Format version                           : Version 4 / Version 2
File size                                : 1.80 GiB
Duration                                 : 1h 41mn
Overall bit rate                         : 2 529 Kbps
Movie name                               : MIRCrew
Encoded date                             : UTC 2019-04-18T15:29:08Z
Writing application                      : mkvmerge v26.0.0 ('In The Game') 64-bit
Writing library                          : Lavf55.12.0

Video
ID                                       : 1
Format                                   : AVC
Format/Info                              : Advanced Video Codec
Format profile                           : [email protected]
Format settings, CABAC                   : Yes
Format settings, ReFrames                : 4 frames
Codec ID                                 : V_MPEG4/ISO/AVC
Duration                                 : 1h 41mn
Bit rate                                 : 1 900 Kbps
Width                                    : 1 280 pixels
Height                                   : 548 pixels
Display aspect ratio                     : 2.35:1
Frame rate                               : 23.976 fps
Color space                              : YUV
Chroma subsampling                       : 4:2:0
Bit depth                                : 8 bits
Scan type                                : Progressive
Bits/(Pixel*Frame)                       : 0.113
Stream size                              : 1.31 GiB (73%)
Title                                    : MIRCrew
Writing library                          : x264 core 142 r2479 dd79a61
Encoding settings                        : cabac=1 / ref=1 / deblock=1:0:0 / analyse=0x1:0x111 / me=hex / subme=2 / psy=1 / psy_rd=1.00:0.00 / mixed_ref=0 / me_range=16 / chroma_me=1 / trellis=0 / 8x8dct=0 / cqm=0 / deadzone=21,11 / fast_pskip=1 / chroma_qp_offset=0 / threads=6 / lookahead_threads=2 / sliced_threads=0 / nr=0 / decimate=1 / interlaced=0 / bluray_compat=0 / constrained_intra=0 / bframes=3 / b_pyramid=2 / b_adapt=1 / b_bias=0 / direct=1 / weightb=1 / open_gop=0 / weightp=1 / keyint=240 / keyint_min=24 / scenecut=40 / intra_refresh=0 / rc_lookahead=10 / rc=abr / mbtree=1 / bitrate=1900 / ratetol=1.0 / qcomp=0.60 / qpmin=0 / qpmax=69 / qpstep=4 / vbv_maxrate=50000 / vbv_bufsize=62500 / nal_hrd=none / filler=0 / ip_ratio=1.40 / aq=1:1.00
Language                                 : Italian
Default                                  : Yes
Forced                                   : No
DURATION                                 : 01:41:58.029000000
NUMBER_OF_FRAMES                         : 146686
NUMBER_OF_BYTES                          : 1443150434
_STATISTICS_WRITING_APP                  : mkvmerge v26.0.0 ('In The Game') 64-bit
_STATISTICS_WRITING_DATE_UTC             : 2019-04-18 19:32:39
_STATISTICS_TAGS                         : BPS DURATION NUMBER_OF_FRAMES NUMBER_OF_BYTES
Color primaries                          : BT.709-5, BT.1361, IEC 61966-2-4, SMPTE RP177
Transfer characteristics                 : BT.709-5, BT.1361
Matrix coefficients                      : BT.709-5, BT.1361, IEC 61966-2-4 709, SMPTE RP177

Audio #1
ID                                       : 2
Format                                   : AC-3
Format/Info                              : Audio Coding 3
Mode extension                           : CM (complete main)
Codec ID                                 : A_AC3
Duration                                 : 1h 41mn
Bit rate mode                            : Constant
Bit rate                                 : 448 Kbps
Channel(s)                               : 6 channels
Channel positions                        : Front: L C R, Side: L R, LFE
Sampling rate                            : 48.0 KHz
Bit depth                                : 16 bits
Compression mode                         : Lossy
Delay relative to video                  : -5ms
Stream size                              : 327 MiB (18%)
Title                                    : Ita Ac3 5.1
Language                                 : Italian
Default                                  : Yes
Forced                                   : No
DURATION                                 : 01:41:58.016000000
NUMBER_OF_FRAMES                         : 191188
NUMBER_OF_BYTES                          : 342608896
_STATISTICS_WRITING_APP                  : mkvmerge v26.0.0 ('In The Game') 64-bit
_STATISTICS_WRITING_DATE_UTC             : 2019-04-18 19:32:39
_STATISTICS_TAGS                         : BPS DURATION NUMBER_OF_FRAMES NUMBER_OF_BYTES

Audio #2
ID                                       : 3
Format                                   : AC-3
Format/Info                              : Audio Coding 3
Mode extension                           : CM (complete main)
Codec ID                                 : A_AC3
Duration                                 : 1h 41mn
Bit rate mode                            : Constant
Bit rate                                 : 192 Kbps
Channel(s)                               : 2 channels
Channel positions                        : Front: L R
Sampling rate                            : 48.0 KHz
Bit depth                                : 16 bits
Compression mode                         : Lossy
Delay relative to video                  : -5ms
Stream size                              : 140 MiB (8%)
Title                                    : Eng Ac3 2.0
Language                                 : English
Default                                  : No
Forced                                   : No
DURATION                                 : 01:41:58.080000000
NUMBER_OF_FRAMES                         : 191190
NUMBER_OF_BYTES                          : 146833920
_STATISTICS_WRITING_APP                  : mkvmerge v26.0.0 ('In The Game') 64-bit
_STATISTICS_WRITING_DATE_UTC             : 2019-04-18 19:32:39
_STATISTICS_TAGS                         : BPS DURATION NUMBER_OF_FRAMES NUMBER_OF_BYTES

Menu
00:00:00.000                             : :Titoli di testa/Il drago
00:10:23.247                             : :Mettendo in pericolo
00:19:38.635                             : :Allarme!
00:25:20.102                             : :L'arrivo degli americani
00:39:27.698                             : :Una nuova forma di difesa
00:50:45.375                             : :Il drappello
01:01:50.290                             : :Via da Londra
01:10:09.663                             : :Castello sotto attacco
01:19:53.955                             : :Preparazione per l'ora magica
01:29:42.293                             : :Attacco!
01:34:57.024                             : :Ricominciando/Titoli di coda







Similar Torrents
Type Name Size Added S L
h.264/x264 Reign.of.the.Supermen.2019.HDRip.XviD.AC3-EVO[EtMo...
1.15 GB 2019-01-14 12:54:03 719 302
HD Reign.of.the.Supermen.2019.1080p.WEB-DL.DD5.1.H264...
3.35 GB 2019-01-14 11:39:10 563 266
Divx/Xvid Reign.of.the.Supermen.2019.HDRip.XviD.AC3-EVO
1.15 GB 2019-01-14 17:15:53 522 228
Divx/Xvid Reign.of.the.Supermen.2019.BRRip.XviD.AC3-EVO
1.11 GB 2019-01-19 23:45:51 497 164
h.264/x264 Reign of the Supermen (2019) [BDRIP] [720P] [NAPIS...
690.28 MB 2019-01-31 12:47:54 414 105
h.264/x264 Reign.of.the.Supermen.2019.HDRip.AC3.X264-CMRG[EtM...
1.33 GB 2019-01-14 11:23:10 308 125
HD Reign of the Supermen (2019) 1080p 5.1 - 2.0 x264 ...
900.98 MB 2019-01-21 20:42:17 267 98
h.264/x264 Reign of the Supermen (2019) English HDRip 720p x2...
702.94 MB 2019-01-14 14:26:19 247 75
HD Reign of the Supermen 2019 720p WEB-DL x264 [MW]
731.75 MB 2019-02-28 11:16:39 230 66
4K Reign of the Supermen (2019) 2160p HDR 5.1 x265 10...
1.34 GB 2019-01-30 20:43:42 205 126

Loading...


Trackers:
udp://tracker.coppersurfer.tk:6969/announce

Reign of Fire - Il regno del fuoco (2002).720p.H264.italian.english.Ac3 5.1.sub.ita.eng-MIRCrew
Files
Il regno del fuoco - Reign of Fire (2002).720p.h264.ita.eng.sub.ita.eng-MIRCrew.eng.srt (51.29 kB)
Il regno del fuoco - Reign of Fire (2002).720p.h264.ita.eng.sub.ita.eng-MIRCrew.ita.srt (51.78 kB)
Il regno del fuoco - Reign of Fire (2002).720p.h264.ita.eng.sub.ita.eng-MIRCrew.mkv (1.80 GB)
Il regno del fuoco - Reign of Fire (2002).720p.h264.ita.eng.sub.ita.eng-MIRCrew.srt (904.00 B)


Comments:
No comments still posted
Loading...
Powered by TT | Page Generated In 0.156670 secs.
| RSS Feed | Feed Info