Warning! Use a VPN When Downloading Torrents!
Your IP Address is .   Location is
Your Internet Provider is tracking your torrent activity!  Hide your IP ADDRESS with a VPN!
We strongly recommend using Trust.Zone VPN to anonymize your torrenting. It's FREE!
Get VPN Now for FREE!
First Cams

Xvid/x264



Non-English

Site Friends
      ETTV

      WorldWide Torrents

      Free Tutorials

      Aiosearch


Loading...

Justice League - Gods and Monsters (2015) 1080p BDRip x265 DTS-HD MA 5.1 Goki [SEV]


Download torrent:      
Info Hash:  f60820ad92959487d238e5a812c900a827868c8d
Category:  Movies  > HEVC/x265
Torrent language:  English  
Seeds | Leech:  257 | 49
Complete:   567
Health:   
Total Size:  3.29 GB
Added By:        SEV
Date Added:  24-05-2019 09:38:am | Last Edit:  24-05-2019 07:46:pm

IMDB
Justice League: Gods and Monsters
Justice League: Gods and Monsters Released 28 Jul 2015

Genre Animation, Action, Adventure, Fantasy, Sci-Fi

Director Sam Liu

Writer Alan Burnett (story), Bruce Timm (story), Alan Burnett (screenplay), Bob Kane (character created by: Batman), William Moulton Marston (character created by: Wonder Woman), Jerry Siegel (character created by: Superman), Joe Shuster (character created by: Superman), John Ostrander (character created by: Amanda Waller), John Byrne (character created by: Amanda Waller), Marv Wolfman (character created by: Emil Hamilton), Jerry Ordway (character created by: Emil Hamilton), Louise Simonson (character created by: John Henry Irons), Jon Bogdanove (character created by: John Henry Irons), Bob Rozakis (character created by: Karen Beecher), Jose Delbo (character created by: Karen Beecher), Neal Adams (character created by: Kirk Langstrom), Jack Kirby (characters created by: New Gods), Gardner Fox (character created by: Ray Palmer), Marv Wolfman (character created by: Silas Stone), George Pérez (character created by: Silas Stone)

Actors Benjamin Bratt, Michael C. Hall, Tamara Taylor, Paget Brewster

Plot In an alternate universe, very different versions of DC's Trinity (Superman, Batman and Wonder Woman), who operate outside of the law, are framed for murders of prominent scientist and the government decides to take them out.

Link https://www.imdb.com/title/tt4324302/

Last Updated 27-06-2019 00:11:53
7.1

Votes 11,681

Un système d'onglets en javascript
Description Trackers Files Comments Download


Screenshots





Media Information

Unique ID                                : 222479015242535134433044458930962095133 (0xA75FE655B5E297EB9FC2A518B1FADC1D)
Complete name                            : Justice League - Gods and Monsters (2015) 1080p BDRip x265 DTS-HD MA 5.1 Goki [SEV].mkv
Format                                   : Matroska
Format version                           : Version 4
File size                                : 3.29 GiB
Duration                                 : 1 h 15 min
Overall bit rate mode                    : Variable
Overall bit rate                         : 6 222 kb/s
Movie name                               : Justice League - Gods and Monsters (2015) 1080p BDRip x265 DTS-HD MA 5.1 Goki [SEV]
Encoded date                             : UTC 2019-05-24 04:54:25
Writing application                      : mkvmerge v28.2.0 ('The Awakening') 64-bit
Writing library                          : libebml v1.3.6 + libmatroska v1.4.9 / Lavf57.73.100
Writing application                      : Internet Friendly Media Encoder v7.7 ('Prism Ark')
Writing library                          : IFME v7.7 amd64 windows

Video
ID                                       : 1
Format                                   : HEVC
Format/Info                              : High Efficiency Video Coding
Format profile                           : Main [email protected]@Main
Codec ID                                 : V_MPEGH/ISO/HEVC
Duration                                 : 1 h 15 min
Bit rate                                 : 2 369 kb/s
Width                                    : 1 920 pixels
Height                                   : 1 080 pixels
Display aspect ratio                     : 16:9
Frame rate mode                          : Constant
Frame rate                               : 23.976 (24000/1001) FPS
Color space                              : YUV
Chroma subsampling                       : 4:2:0
Bit depth                                : 10 bits
Bits/(Pixel*Frame)                       : 0.048
Stream size                              : 1.25 GiB (38%)
Writing library                          : x265 2.9+8-27d8424c799d:[Windows][MSVC 1915][64 bit] 10bit
Encoding settings                        : cpuid=1111039 / frame-threads=2 / numa-pools=4 / wpp / no-pmode / no-pme / no-psnr / no-ssim / log-level=2 / input-csp=1 / input-res=1920x1080 / interlace=0 / total-frames=0 / level-idc=0 / high-tier=1 / uhd-bd=0 / ref=4 / no-allow-non-conformance / no-repeat-headers / annexb / no-aud / no-hrd / info / hash=0 / no-temporal-layers / open-gop / min-keyint=23 / keyint=250 / gop-lookahead=0 / bframes=8 / b-adapt=2 / b-pyramid / bframe-bias=0 / rc-lookahead=100 / lookahead-slices=4 / scenecut=40 / radl=0 / no-intra-refresh / ctu=64 / min-cu-size=8 / no-rect / no-amp / max-tu-size=32 / tu-inter-depth=2 / tu-intra-depth=2 / limit-tu=4 / rdoq-level=2 / dynamic-rd=0.00 / no-ssim-rd / signhide / no-tskip / nr-intra=0 / nr-inter=0 / no-constrained-intra / no-strong-intra-smoothing / max-merge=3 / limit-refs=2 / limit-modes / me=3 / subme=5 / merange=57 / temporal-mvp / weightp / weightb / no-analyze-src-pics / deblock=0:0 / sao / no-sao-non-deblock / rd=6 / no-early-skip / rskip / no-fast-intra / no-tskip-fast / no-cu-lossless / b-intra / no-splitrd-skip / rdpenalty=0 / psy-rd=1.30 / psy-rdoq=2.00 / no-rd-refine / no-lossless / cbqpoffs=0 / crqpoffs=0 / rc=crf / crf=17.0 / qcomp=0.60 / qpstep=4 / stats-write=0 / stats-read=0 / ipratio=1.40 / pbratio=1.30 / aq-mode=2 / aq-strength=1.10 / cutree / zone-count=0 / no-strict-cbr / qg-size=32 / no-rc-grain / qpmax=69 / qpmin=0 / no-const-vbv / sar=1 / overscan=0 / videoformat=5 / range=0 / colorprim=2 / transfer=2 / colormatrix=2 / chromaloc=0 / display-window=0 / max-cll=0,0 / min-luma=0 / max-luma=1023 / log2-max-poc-lsb=8 / vui-timing-info / vui-hrd-info / slices=1 / no-opt-qp-pps / no-opt-ref-list-length-pps / no-multi-pass-opt-rps / scenecut-bias=0.05 / no-opt-cu-delta-qp / no-aq-motion / no-hdr / no-hdr-opt / no-dhdr10-opt / no-idr-recovery-sei / analysis-reuse-level=5 / scale-factor=0 / refine-intra=0 / refine-inter=0 / refine-mv=0 / no-limit-sao / ctu-info=0 / no-lowpass-dct / refine-mv-type=0 / copy-pic=1 / max-ausize-factor=1.0 / no-dynamic-refine / no-single-sei
Language                                 : English
Default                                  : Yes
Forced                                   : No

Audio
ID                                       : 2
Format                                   : DTS XLL
Format/Info                              : Digital Theater Systems
Commercial name                          : DTS-HD Master Audio
Codec ID                                 : A_DTS
Duration                                 : 1 h 15 min
Bit rate mode                            : Variable
Bit rate                                 : 3 761 kb/s
Channel(s)                               : 6 channels
Channel layout                           : C L R Ls Rs LFE
Sampling rate                            : 48.0 kHz
Frame rate                               : 93.750 FPS (512 SPF)
Bit depth                                : 24 bits
Compression mode                         : Lossless
Stream size                              : 1.99 GiB (60%)
Language                                 : English
Default                                  : Yes
Forced                                   : No

Text #1
ID                                       : 3
Format                                   : PGS
Muxing mode                              : zlib
Codec ID                                 : S_HDMV/PGS
Codec ID/Info                            : Picture based subtitle format used on BDs/HD-DVDs
Duration                                 : 1 h 15 min
Bit rate                                 : 34.9 kb/s
Count of elements                        : 1868
Stream size                              : 18.8 MiB (1%)
Language                                 : English
Default                                  : No
Forced                                   : No

Text #2
ID                                       : 4
Format                                   : PGS
Muxing mode                              : zlib
Codec ID                                 : S_HDMV/PGS
Codec ID/Info                            : Picture based subtitle format used on BDs/HD-DVDs
Duration                                 : 1 h 15 min
Bit rate                                 : 36.0 kb/s
Count of elements                        : 1602
Stream size                              : 19.3 MiB (1%)
Language                                 : French
Default                                  : No
Forced                                   : No

Text #3
ID                                       : 5
Format                                   : PGS
Muxing mode                              : zlib
Codec ID                                 : S_HDMV/PGS
Codec ID/Info                            : Picture based subtitle format used on BDs/HD-DVDs
Duration                                 : 1 h 15 min
Bit rate                                 : 40.3 kb/s
Count of elements                        : 1872
Stream size                              : 21.7 MiB (1%)
Language                                 : German
Default                                  : No
Forced                                   : No

Text #4
ID                                       : 6
Format                                   : PGS
Muxing mode                              : zlib
Codec ID                                 : S_HDMV/PGS
Codec ID/Info                            : Picture based subtitle format used on BDs/HD-DVDs
Duration                                 : 1 h 11 min
Bit rate                                 : 24.4 kb/s
Count of elements                        : 1571
Stream size                              : 12.5 MiB (0%)
Language                                 : Japanese
Default                                  : No
Forced                                   : No

Text #5
ID                                       : 7
Format                                   : PGS
Muxing mode                              : zlib
Codec ID                                 : S_HDMV/PGS
Codec ID/Info                            : Picture based subtitle format used on BDs/HD-DVDs
Duration                                 : 1 h 15 min
Bit rate                                 : 30.4 kb/s
Count of elements                        : 1604
Stream size                              : 16.3 MiB (0%)
Language                                 : Spanish
Default                                  : No
Forced                                   : No

Text #6
ID                                       : 8
Format                                   : PGS
Muxing mode                              : zlib
Codec ID                                 : S_HDMV/PGS
Codec ID/Info                            : Picture based subtitle format used on BDs/HD-DVDs
Duration                                 : 1 h 15 min
Bit rate                                 : 33.5 kb/s
Count of elements                        : 1612
Stream size                              : 18.0 MiB (1%)
Language                                 : Spanish
Default                                  : No
Forced                                   : No

Menu
00:00:00.000                             : en:00:00:00.000
00:09:13.803                             : en:00:09:13.803
00:19:45.559                             : en:00:19:45.559
00:29:25.555                             : en:00:29:25.555
00:39:32.495                             : en:00:39:32.495
00:49:10.990                             : en:00:49:10.990
01:00:26.414                             : en:01:00:26.414
01:09:52.105                             : en:01:09:52.105
01:12:35.142                             : en:01:12:35.142


Source Information

Unique ID                                : 175145742954196823885865839069150048069 (0x83C3D7D551BBA8E4B7AC00B37A6BEF45)
Complete name                            : Justice League - Gods and Monsters 2015 1080p Blu-ray Remux AVC DTS-HD MA 5.1 - KRaLiMaRKo.mkv
Format                                   : Matroska
Format version                           : Version 4
File size                                : 11.6 GiB
Duration                                 : 1 h 15 min
Overall bit rate mode                    : Variable
Overall bit rate                         : 21.9 Mb/s
Movie name                               : Justice League - Gods and Monsters 2015 1080p Blu-ray Remux AVC DTS-HD MA 5.1 - KRaLiMaRKo
Encoded date                             : UTC 2015-07-20 07:41:20
Writing application                      : mkvmerge v8.2.0 ('World of Adventure') 64bit
Writing library                          : libebml v1.3.1 + libmatroska v1.4.2

Video
ID                                       : 1
Format                                   : AVC
Format/Info                              : Advanced Video Codec
Format profile                           : [email protected]
Format settings                          : CABAC / 2 Ref Frames
Format settings, CABAC                   : Yes
Format settings, RefFrames               : 2 frames
Codec ID                                 : V_MPEG4/ISO/AVC
Duration                                 : 1 h 15 min
Bit rate mode                            : Variable
Bit rate                                 : 17.9 Mb/s
Width                                    : 1 920 pixels
Height                                   : 1 080 pixels
Display aspect ratio                     : 16:9
Frame rate mode                          : Constant
Frame rate                               : 23.976 (24000/1001) FPS
Color space                              : YUV
Chroma subsampling                       : 4:2:0
Bit depth                                : 8 bits
Scan type                                : Progressive
Bits/(Pixel*Frame)                       : 0.360
Stream size                              : 9.47 GiB (82%)
Language                                 : English
Default                                  : Yes
Forced                                   : No

Audio
ID                                       : 2
Format                                   : DTS XLL
Format/Info                              : Digital Theater Systems
Commercial name                          : DTS-HD Master Audio
Codec ID                                 : A_DTS
Duration                                 : 1 h 15 min
Bit rate mode                            : Variable
Bit rate                                 : 3 761 kb/s
Channel(s)                               : 6 channels
Channel layout                           : C L R Ls Rs LFE
Sampling rate                            : 48.0 kHz
Frame rate                               : 93.750 FPS (512 SPF)
Bit depth                                : 24 bits
Compression mode                         : Lossless
Stream size                              : 1.99 GiB (17%)
Language                                 : English
Default                                  : Yes
Forced                                   : No

Text #1
ID                                       : 3
Format                                   : PGS
Codec ID                                 : S_HDMV/PGS
Codec ID/Info                            : Picture based subtitle format used on BDs/HD-DVDs
Duration                                 : 1 h 15 min
Bit rate                                 : 34.9 kb/s
Count of elements                        : 1868
Stream size                              : 18.8 MiB (0%)
Title                                    : SDH
Language                                 : English
Default                                  : Yes
Forced                                   : No

Text #2
ID                                       : 4
Format                                   : PGS
Codec ID                                 : S_HDMV/PGS
Codec ID/Info                            : Picture based subtitle format used on BDs/HD-DVDs
Duration                                 : 1 h 15 min
Bit rate                                 : 36.0 kb/s
Count of elements                        : 1602
Stream size                              : 19.3 MiB (0%)
Language                                 : French
Default                                  : No
Forced                                   : No

Text #3
ID                                       : 5
Format                                   : PGS
Codec ID                                 : S_HDMV/PGS
Codec ID/Info                            : Picture based subtitle format used on BDs/HD-DVDs
Duration                                 : 1 h 15 min
Bit rate                                 : 40.3 kb/s
Count of elements                        : 1872
Stream size                              : 21.7 MiB (0%)
Title                                    : SDH
Language                                 : German
Default                                  : No
Forced                                   : No

Text #4
ID                                       : 6
Format                                   : PGS
Codec ID                                 : S_HDMV/PGS
Codec ID/Info                            : Picture based subtitle format used on BDs/HD-DVDs
Duration                                 : 1 h 11 min
Bit rate                                 : 24.4 kb/s
Count of elements                        : 1571
Stream size                              : 12.5 MiB (0%)
Language                                 : Japanese
Default                                  : No
Forced                                   : No

Text #5
ID                                       : 7
Format                                   : PGS
Codec ID                                 : S_HDMV/PGS
Codec ID/Info                            : Picture based subtitle format used on BDs/HD-DVDs
Duration                                 : 1 h 15 min
Bit rate                                 : 30.4 kb/s
Count of elements                        : 1604
Stream size                              : 16.3 MiB (0%)
Title                                    : Castilian Spanish
Language                                 : Spanish
Default                                  : No
Forced                                   : No

Text #6
ID                                       : 8
Format                                   : PGS
Codec ID                                 : S_HDMV/PGS
Codec ID/Info                            : Picture based subtitle format used on BDs/HD-DVDs
Duration                                 : 1 h 15 min
Bit rate                                 : 33.5 kb/s
Count of elements                        : 1612
Stream size                              : 18.0 MiB (0%)
Title                                    : Latin American Spanish
Language                                 : Spanish
Default                                  : No
Forced                                   : No

Menu
00:00:00.000                             : en:00:00:00.000
00:09:13.803                             : en:00:09:13.803
00:19:45.559                             : en:00:19:45.559
00:29:25.555                             : en:00:29:25.555
00:39:32.495                             : en:00:39:32.495
00:49:10.990                             : en:00:49:10.990
01:00:26.414                             : en:01:00:26.414
01:09:52.105                             : en:01:09:52.105
01:12:35.142                             : en:01:12:35.142

.........................................................................................................................................

We have no issue with individuals posting or re-uploading our torrents on a platform we aren't on. However, if this is something you'd like to do, please do so in a 'as-is' format. We ask that you do not create a new torrent, include all descriptions you see above including the SEV logo, tags, notes and screenshots. If you'd like to become a permanent poster on a website we don't post to, feel free to get in contact with a Sublime Encoded Video member.


We are recruiting/training new members for SEV & seedbox providers as well as people to help out with subtitles.
As you already know, we deliver quality, so you know the standard.
If you're interested, feel free to contact any of the team members.


Similar Torrents
Type Name Size Added S L
h.264/x264 Justice League vs. the Fatal Five.2019.HDRip.XviD....
1.13 GB 2019-03-30 02:09:02 8134 6761
HD Video HD SHKD-841 grovel gender justice perpetrated the...
2.98 GB 2019-03-06 08:32:07 3445 1991
HD Justice.League.vs.the.Fatal.Five.2019.1080p.WEB-DL...
2.99 GB 2019-03-30 01:53:55 2554 2519
Anime/Hentai [survive] TWIN QUIET Deep Brainwash, Distorted Jus...
2.48 GB 2019-06-07 20:49:25 2185 1066
HD Young.Justice.S03E12.720p.WEB.H264-AMRAP[ettv]
506.84 MB 2019-01-25 19:32:23 2171 751
HD Young.Justice.S03E10.720p.WEB.H264-AMRAP[ettv]
490.24 MB 2019-01-25 19:29:07 2152 756
HD Video HD 300MIUM-398 plump Cuban beauty 15 years in Cub...
2.39 GB 2019-03-07 23:07:43 2092 4923
HD Young.Justice.S03E11.720p.WEB.H264-AMRAP[ettv]
490.39 MB 2019-01-25 19:35:28 1929 596
HD Young.Justice.S03E08.720p.WEB.H264-AMRAP[ettv]
480.98 MB 2019-01-18 16:27:37 1866 488
HD Young.Justice.S03E09.720p.WEB.H264-AMRAP[ettv]
489.22 MB 2019-01-18 16:33:31 1861 517

Loading...


Trackers:
udp://tracker.coppersurfer.tk:6969/announce

This Torrent also has backup trackers
URLSeedersLeechersCompleted
http://tracker.opentrackr.org:1337/announce000
http://tracker3.itzmx.com:6961/announce000

Justice League - Gods and Monsters (2015) 1080p BDRip x265 DTS-HD MA 5.1 Goki [SEV]
Files
Justice League - Gods and Monsters (2015) 1080p BDRip x265 DTS-HD MA 5.1 Goki [SEV]-banner.jpg (155.15 kB)
Justice League - Gods and Monsters (2015) 1080p BDRip x265 DTS-HD MA 5.1 Goki [SEV]-clearart.png (305.77 kB)
Justice League - Gods and Monsters (2015) 1080p BDRip x265 DTS-HD MA 5.1 Goki [SEV]-clearlogo.png (46.16 kB)
Justice League - Gods and Monsters (2015) 1080p BDRip x265 DTS-HD MA 5.1 Goki [SEV]-disc.png (1.22 MB)
Justice League - Gods and Monsters (2015) 1080p BDRip x265 DTS-HD MA 5.1 Goki [SEV]-fanart.jpg (200.43 kB)
Justice League - Gods and Monsters (2015) 1080p BDRip x265 DTS-HD MA 5.1 Goki [SEV]-logo.png (46.16 kB)
Justice League - Gods and Monsters (2015) 1080p BDRip x265 DTS-HD MA 5.1 Goki [SEV]-poster.jpg (75.13 kB)
Justice League - Gods and Monsters (2015) 1080p BDRip x265 DTS-HD MA 5.1 Goki [SEV]-thumb.jpg (445.30 kB)
Justice League - Gods and Monsters (2015) 1080p BDRip x265 DTS-HD MA 5.1 Goki [SEV].mkv (3.29 GB)
Justice League - Gods and Monsters (2015) 1080p BDRip x265 DTS-HD MA 5.1 Goki [SEV].nfo (6.08 kB)


Comments:
No comments still posted
Loading...
Powered by TT | Page Generated In 0.747998 secs.
| RSS Feed | Feed Info