Warning! Use a VPN When Downloading Torrents!
Your IP Address is .   Location is
Your Internet Provider is tracking your torrent activity!  Hide your IP ADDRESS with a VPN!
We strongly recommend using Trust.Zone VPN to anonymize your torrenting. It's FREE!
Get VPN Now for FREE!
First Cams

Xvid/x264



Non-English

Site Friends
      ETTV

      WorldWide Torrents

      Free Tutorials

      Aiosearch


Loading...

Mard Ko Dard Nahi Hota 2019 x264 720p Esub Netflix Hindi GOPISAHI


Download torrent:      
Info Hash:  c09c9c6d12efe21c38c618c7032c10bb572395e9
Category:  Movies  > HD
Torrent language:  Hindi  
Seeds | Leech:  2,002 | 2,153
Complete:   1,337
Health:   
Total Size:  872.80 MB
Added By:        GOPISAHI
Date Added:  23-05-2019 05:56:pm | Last Edit:  24-05-2019 10:17:am

Un système d'onglets en javascript
Description Trackers Files Comments Download
https://www.gopisahi.xyz/



Mard Ko Dard Nahi Hota 2019 x264 720p Esub Netflix Hindi GOPISAHI

Format                         : Matroska
Format version                 : Version 4 / Version 2
File size                      : 873 MiB
Duration                       : 2 h 16 min
Overall bit rate               : 894 kb/s
Movie name                     : Mard Ko Dard Nahi Hota 2019 GOPISAHI
Encoded date                   : UTC 2019-05-23 07:20:52
Writing application            : mkvmerge v19.0.0 ('Brave Captain') 32-bit
Writing library                : libebml v1.3.5 + libmatroska v1.4.8

Video
ID                             : 1
Format                         : AVC
Format/Info                    : Advanced Video Codec
Format profile                 : [email protected]
Format settings                : CABAC / 16 Ref Frames
Format settings, CABAC         : Yes
Format settings, ReFrames      : 16 frames
Codec ID                       : V_MPEG4/ISO/AVC
Duration                       : 2 h 16 min
Bit rate                       : 699 kb/s
Width                          : 1 280 pixels
Height                         : 674 pixels
Display aspect ratio           : 1.899
Frame rate mode                : Constant
Frame rate                     : 24.000 FPS
Color space                    : YUV
Chroma subsampling             : 4:2:0
Bit depth                      : 8 bits
Scan type                      : Progressive
Bits/(Pixel*Frame)             : 0.034
Stream size                    : 682 MiB (78%)
Title                          : GOPISAHI
Writing library                : x264 core 157 r2935 545de2f
Encoding settings              : cabac=1 / ref=16 / deblock=1:0:0 / analyse=0x3:0x133 / me=umh / subme=10 / psy=1 / psy_rd=1.00:0.00 / mixed_ref=1 / me_range=24 / chroma_me=1 / trellis=2 / 8x8dct=1 / cqm=0 / deadzone=21,11 / fast_pskip=1 / chroma_qp_offset=-2 / threads=12 / lookahead_threads=2 / sliced_threads=0 / nr=0 / decimate=1 / interlaced=0 / bluray_compat=0 / constrained_intra=0 / bframes=8 / b_pyramid=2 / b_adapt=2 / b_bias=0 / direct=3 / weightb=1 / open_gop=0 / weightp=2 / keyint=240 / keyint_min=24 / scenecut=40 / intra_refresh=0 / rc_lookahead=60 / rc=2pass / mbtree=1 / bitrate=699 / ratetol=1.0 / qcomp=0.60 / qpmin=0 / qpmax=69 / qpstep=4 / cplxblur=20.0 / qblur=0.5 / ip_ratio=1.40 / aq=1:1.00
Language                       : Hindi
Default                        : Yes
Forced                         : No
Color range                    : Limited
Color primaries                : BT.709
Transfer characteristics       : BT.709
Matrix coefficients            : BT.709

Audio
ID                             : 2
Format                         : AAC
Format/Info                    : Advanced Audio Codec
Format profile                 : LC
Codec ID                       : A_AAC-2
Duration                       : 2 h 16 min
Bit rate                       : 192 kb/s
Channel(s)                     : 6 channels
Channel positions              : Front: L C R, Side: C, Back: L R
Sampling rate                  : 48.0 kHz
Frame rate                     : 46.875 FPS (1024 SPF)
Compression mode               : Lossy
Delay relative to video        : -21 ms
Stream size                    : 188 MiB (22%)
Title                          : GOPISAHI
Language                       : Hindi
Default                        : Yes
Forced                         : No

Text #1
ID                             : 3
Format                         : UTF-8
Codec ID                       : S_TEXT/UTF8
Codec ID/Info                  : UTF-8 Plain Text
Duration                       : 2 h 15 min
Bit rate                       : 55 b/s
Count of elements              : 1840
Stream size                    : 55.7 KiB (0%)
Title                          : GOPISAHI
Language                       : English
Default                        : Yes
Forced                         : No

Text #2
ID                             : 4
Format                         : UTF-8
Codec ID                       : S_TEXT/UTF8
Codec ID/Info                  : UTF-8 Plain Text
Duration                       : 2 h 11 min
Bit rate                       : 46 b/s
Count of elements              : 1490
Stream size                    : 45.0 KiB (0%)
Title                          : Spanish [Full]
Language                       : Spanish
Default                        : No
Forced                         : No

Text #3
ID                             : 5
Format                         : UTF-8
Codec ID                       : S_TEXT/UTF8
Codec ID/Info                  : UTF-8 Plain Text
Duration                       : 2 h 15 min
Bit rate                       : 52 b/s
Count of elements              : 1845
Stream size                    : 51.9 KiB (0%)
Title                          : French [Full]
Language                       : French
Default                        : No
Forced                         : No

Text #4
ID                             : 6
Format                         : UTF-8
Codec ID                       : S_TEXT/UTF8
Codec ID/Info                  : UTF-8 Plain Text
Duration                       : 2 h 15 min
Bit rate                       : 52 b/s
Count of elements              : 1659
Stream size                    : 52.5 KiB (0%)
Title                          : German [Full]
Language                       : German
Default                        : No
Forced                         : No

Text #5
ID                             : 7
Format                         : UTF-8
Codec ID                       : S_TEXT/UTF8
Codec ID/Info                  : UTF-8 Plain Text
Duration                       : 2 h 15 min
Bit rate                       : 55 b/s
Count of elements              : 1713
Stream size                    : 55.1 KiB (0%)
Title                          : Italian [Full]
Language                       : Italian
Default                        : No
Forced                         : No

Text #6
ID                             : 8
Format                         : UTF-8
Codec ID                       : S_TEXT/UTF8
Codec ID/Info                  : UTF-8 Plain Text
Duration                       : 2 h 15 min
Bit rate                       : 47 b/s
Count of elements              : 1563
Stream size                    : 47.2 KiB (0%)
Title                          : Brazilian Portuguese [Full]
Language                       : Portuguese
Default                        : No
Forced                         : No

Text #7
ID                             : 9
Format                         : UTF-8
Codec ID                       : S_TEXT/UTF8
Codec ID/Info                  : UTF-8 Plain Text
Duration                       : 2 h 11 min
Bit rate                       : 50 b/s
Count of elements              : 1737
Stream size                    : 48.5 KiB (0%)
Title                          : Turkish [Full]
Language                       : Turkish
Default                        : No
Forced                         : No

Text #8
ID                             : 10
Format                         : UTF-8
Codec ID                       : S_TEXT/UTF8
Codec ID/Info                  : UTF-8 Plain Text
Duration                       : 2 h 11 min
Bit rate                       : 45 b/s
Count of elements              : 1507
Stream size                    : 43.5 KiB (0%)
Title                          : Dutch [Full]
Language                       : Dutch
Default                        : No
Forced                         : No

Text #9
ID                             : 11
Format                         : UTF-8
Codec ID                       : S_TEXT/UTF8
Codec ID/Info                  : UTF-8 Plain Text
Duration                       : 2 h 11 min
Bit rate                       : 46 b/s
Count of elements              : 1505
Stream size                    : 44.8 KiB (0%)
Title                          : Indonesian [Full]
Language                       : Indonesian
Default                        : No
Forced                         : No

Text #10
ID                             : 12
Format                         : UTF-8
Codec ID                       : S_TEXT/UTF8
Codec ID/Info                  : UTF-8 Plain Text
Duration                       : 2 h 15 min
Bit rate                       : 122 b/s
Count of elements              : 1848
Stream size                    : 122 KiB (0%)
Title                          : Thai [Full]
Language                       : Thai








Similar Torrents
Type Name Size Added S L
HD Mard Ko Dard Nahin Hota (2019) Hindi 720p NF HDRip...
1.05 GB 2019-05-21 22:12:48 3119 2806
HD Mard Ko Dard Nahi Hota (2019) 720p HDRip Bollywood...
1.28 GB 2019-04-06 14:41:05 1741 1288
Non-English Mard Ko Dard Nahin Hota 2019 WebRip Hindi 720p x26...
1.19 GB 2019-05-22 08:14:52 1670 1857
HD Mard Ko Dard Nahi Hota (2019) 480p HDRip Bollywood...
425.78 MB 2019-04-06 14:46:30 897 601
h.264/x264 Mard Ko Dard Nahi Hota (2019) Hindi 720p HC x264 A...
1.31 GB 2019-04-09 05:40:54 869 985
h.264/x264 Mard Ko Dard Nahi Hota.2019.Hindi.720p.WEBRip.x264...
1.18 GB 2019-05-22 10:08:58 866 998
HD Mard Ko Dard Nahi Hota 2018 [HDTV] [720p HQ].-.LHD...
1.29 GB 2019-05-19 21:56:51 567 979
Non-English Mard Ko Dard Nahin Hota 2019 WebRip Hindi 720p x26...
2.91 GB 2019-05-22 08:35:51 455 283
DVD Mard Ko Dard Nahin Hota (2019) Hindi Pre-DVDRip x2...
679.41 MB 2019-04-08 05:55:22 455 448
h.264/x264 Mard Ko Dard Nahi Hota.2019.Hindi.1080p.WEBRip.x26...
2.22 GB 2019-05-22 10:04:47 446 486

Loading...


Trackers:
udp://tracker.open-internet.nl:6969/announce

This Torrent also has backup trackers
URLSeedersLeechersCompleted
http://tracker3.itzmx.com:6961/announce000
http://tracker1.itzmx.com:8080/announce000
http://open.acgnxtracker.com:80/announce000
http://tracker4.itzmx.com:2710/announce000
http://tracker.novg.net:6969/announce000
https://tracker.fastdownload.xyz:443/announce000
https://t.quic.ws:443/announce000
http://open.trackerlist.xyz:80/announce000
http://gwp2-v19.rinet.ru:80/announce000
http://opentracker.h4ck.me:6969/announce000
http://carapax.net:6969/announce000
http://tracker.tvunderground.org.ru:3218/announce000
https://tracker.gbitt.info:443/announce000
http://vps02.net.orel.ru:80/announce000
http://tracker.moxing.party:6969/announce000
http://tracker.gbitt.info:80/announce000
http://mail2.zelenaya.net:80/announce000
http://bt1.xxxxbt.cc:6969/announce000
http://t.nyaatracker.com:80/announce000
https://tracker.vectahosting.eu:2053/announce000
https://tracker.parrotsec.org:443/announce000
http://tracker2.itzmx.com:6961/announce000
http://tracker.bz:80/announce000
http://tracker.bt4g.com:2095/announce000
https://1337.abcvg.info:443/announce000
http://tracker.torrentyorg.pl:80/announce000
http://t.acg.rip:6699/announce000
http://share.camoe.cn:8080/announce000
http://bt-tracker.gamexp.ru:2710/announce000

Mard Ko Dard Nahi Hota 2019 x264 720p Esub Netflix Hindi GOPISAHI
Files
Mard Ko Dard Nahi Hota 2019 x264 720p Esub Netflix Hindi GOPISAHI.mkv (872.80 MB)


Comments:
No comments still posted
Loading...
Powered by TT | Page Generated In 0.164737 secs.
| RSS Feed | Feed Info