Warning! Use a VPN When Downloading Torrents!
Your IP Address is .   Location is
Your Internet Provider is tracking your torrent activity!  Hide your IP ADDRESS with a VPN!
We strongly recommend using Trust.Zone VPN to anonymize your torrenting. It's FREE!
Get VPN Now for FREE!
First Cams

Xvid/x264



Non-English

Site Friends
      ETTV

      WorldWide Torrents

      Free Tutorials

      Aiosearch


Loading...

All-Star Superman (2011) 1080p BDRip x265 DTS-HD MA 5.1 Goki [SEV]


Download torrent:      
Info Hash:  4b7a8d22ea55887ce082ec13932025b7db8e0707
Category:  Movies  > HEVC/x265
Torrent language:  English  
Seeds | Leech:  243 | 67
Complete:   666
Health:   
Total Size:  3.41 GB
Added By:        SEV
Date Added:  23-05-2019 06:39:am | Last Edit:  23-05-2019 08:36:pm

IMDB
All-Star Superman
All-Star Superman Released 22 Feb 2011

Genre Animation, Action, Sci-Fi

Director Sam Liu

Writer Jerry Siegel (character created by: Superman), Joe Shuster (character created by: Superman), Grant Morrison (graphic novel), Frank Quitely (graphic novel), Dwayne McDuffie

Actors James Denton, Christina Hendricks, Anthony LaPaglia, Edward Asner

Plot After being poisoned by sun radiation, a dying Superman decides to fulfill his lifelong dreams while Lex Luthor has his own agenda.

Link https://www.imdb.com/title/tt1699114/

Last Updated 26-06-2019 23:01:17
7.0

Votes 12,528

Un système d'onglets en javascript
Description Trackers Files Comments Download


Screenshots





Media Information

Unique ID                                : 9126849032813060122315505321385932207 (0x6DDC4663CC950B46D29F5088E1C35AF)
Complete name                            : All-Star Superman (2011) 1080p BDRip x265 DTS-HD MA 5.1 Goki [SEV].mkv
Format                                   : Matroska
Format version                           : Version 4
File size                                : 3.41 GiB
Duration                                 : 1 h 16 min
Overall bit rate mode                    : Variable
Overall bit rate                         : 6 365 kb/s
Movie name                               : All-Star Superman (2011) 1080p BDRip x265 DTS-HD MA 5.1 Goki [SEV]
Encoded date                             : UTC 2019-05-22 22:12:05
Writing application                      : mkvmerge v28.2.0 ('The Awakening') 64-bit
Writing library                          : libebml v1.3.6 + libmatroska v1.4.9 / Lavf57.73.100
Writing application                      : Internet Friendly Media Encoder v7.7 ('Prism Ark')
Writing library                          : IFME v7.7 amd64 windows

Video
ID                                       : 1
Format                                   : HEVC
Format/Info                              : High Efficiency Video Coding
Format profile                           : Main [email protected]@Main
Codec ID                                 : V_MPEGH/ISO/HEVC
Duration                                 : 1 h 16 min
Bit rate                                 : 3 901 kb/s
Width                                    : 1 920 pixels
Height                                   : 1 080 pixels
Display aspect ratio                     : 16:9
Frame rate mode                          : Constant
Frame rate                               : 23.976 (24000/1001) FPS
Color space                              : YUV
Chroma subsampling                       : 4:2:0
Bit depth                                : 10 bits
Bits/(Pixel*Frame)                       : 0.078
Stream size                              : 2.09 GiB (61%)
Writing library                          : x265 2.9+8-27d8424c799d:[Windows][MSVC 1915][64 bit] 10bit
Encoding settings                        : cpuid=1111039 / frame-threads=2 / numa-pools=4 / wpp / no-pmode / no-pme / no-psnr / no-ssim / log-level=2 / input-csp=1 / input-res=1920x1080 / interlace=0 / total-frames=0 / level-idc=0 / high-tier=1 / uhd-bd=0 / ref=4 / no-allow-non-conformance / no-repeat-headers / annexb / no-aud / no-hrd / info / hash=0 / no-temporal-layers / open-gop / min-keyint=23 / keyint=250 / gop-lookahead=0 / bframes=8 / b-adapt=2 / b-pyramid / bframe-bias=0 / rc-lookahead=100 / lookahead-slices=4 / scenecut=40 / radl=0 / no-intra-refresh / ctu=64 / min-cu-size=8 / no-rect / no-amp / max-tu-size=32 / tu-inter-depth=2 / tu-intra-depth=2 / limit-tu=4 / rdoq-level=2 / dynamic-rd=0.00 / no-ssim-rd / signhide / no-tskip / nr-intra=0 / nr-inter=0 / no-constrained-intra / no-strong-intra-smoothing / max-merge=3 / limit-refs=2 / limit-modes / me=3 / subme=5 / merange=57 / temporal-mvp / weightp / weightb / no-analyze-src-pics / deblock=0:0 / sao / no-sao-non-deblock / rd=6 / no-early-skip / rskip / no-fast-intra / no-tskip-fast / no-cu-lossless / b-intra / no-splitrd-skip / rdpenalty=0 / psy-rd=1.30 / psy-rdoq=2.00 / no-rd-refine / no-lossless / cbqpoffs=0 / crqpoffs=0 / rc=crf / crf=17.0 / qcomp=0.60 / qpstep=4 / stats-write=0 / stats-read=0 / ipratio=1.40 / pbratio=1.30 / aq-mode=2 / aq-strength=1.10 / cutree / zone-count=0 / no-strict-cbr / qg-size=32 / no-rc-grain / qpmax=69 / qpmin=0 / no-const-vbv / sar=1 / overscan=0 / videoformat=5 / range=0 / colorprim=2 / transfer=2 / colormatrix=2 / chromaloc=0 / display-window=0 / max-cll=0,0 / min-luma=0 / max-luma=1023 / log2-max-poc-lsb=8 / vui-timing-info / vui-hrd-info / slices=1 / no-opt-qp-pps / no-opt-ref-list-length-pps / no-multi-pass-opt-rps / scenecut-bias=0.05 / no-opt-cu-delta-qp / no-aq-motion / no-hdr / no-hdr-opt / no-dhdr10-opt / no-idr-recovery-sei / analysis-reuse-level=5 / scale-factor=0 / refine-intra=0 / refine-inter=0 / refine-mv=0 / no-limit-sao / ctu-info=0 / no-lowpass-dct / refine-mv-type=0 / copy-pic=1 / max-ausize-factor=1.0 / no-dynamic-refine / no-single-sei
Language                                 : English
Default                                  : Yes
Forced                                   : No

Audio #1
ID                                       : 2
Format                                   : DTS XLL
Format/Info                              : Digital Theater Systems
Commercial name                          : DTS-HD Master Audio
Codec ID                                 : A_DTS
Duration                                 : 1 h 16 min
Bit rate mode                            : Variable
Bit rate                                 : 2 222 kb/s
Channel(s)                               : 6 channels
Channel layout                           : C L R Ls Rs LFE
Sampling rate                            : 48.0 kHz
Frame rate                               : 93.750 FPS (512 SPF)
Bit depth                                : 16 bits
Compression mode                         : Lossless
Stream size                              : 1.19 GiB (35%)
Title                                    : DTS-HD Master Audio / 5.1 / 48 kHz / 2221 kbps / 16-bit
Language                                 : English
Default                                  : Yes
Forced                                   : No

Audio #2
ID                                       : 3
Format                                   : AC-3
Format/Info                              : Audio Coding 3
Commercial name                          : Dolby Digital
Codec ID                                 : A_AC3
Duration                                 : 1 h 16 min
Bit rate mode                            : Constant
Bit rate                                 : 192 kb/s
Channel(s)                               : 2 channels
Channel layout                           : L R
Sampling rate                            : 48.0 kHz
Frame rate                               : 31.250 FPS (1536 SPF)
Bit depth                                : 16 bits
Compression mode                         : Lossy
Stream size                              : 105 MiB (3%)
Title                                    : Commentary by Producer Bruce Timm and Graphic Novel Author Grant Morrison
Language                                 : English
Service kind                             : Complete Main
Default                                  : No
Forced                                   : No

Text #1
ID                                       : 4
Format                                   : PGS
Muxing mode                              : zlib
Codec ID                                 : S_HDMV/PGS
Codec ID/Info                            : Picture based subtitle format used on BDs/HD-DVDs
Duration                                 : 1 h 15 min
Bit rate                                 : 32.8 kb/s
Count of elements                        : 1864
Stream size                              : 17.8 MiB (1%)
Language                                 : English
Default                                  : No
Forced                                   : No

Text #2
ID                                       : 5
Format                                   : PGS
Muxing mode                              : zlib
Codec ID                                 : S_HDMV/PGS
Codec ID/Info                            : Picture based subtitle format used on BDs/HD-DVDs
Duration                                 : 1 h 15 min
Bit rate                                 : 42.0 kb/s
Count of elements                        : 1992
Stream size                              : 22.8 MiB (1%)
Language                                 : German
Default                                  : No
Forced                                   : No

Text #3
ID                                       : 6
Format                                   : PGS
Muxing mode                              : zlib
Codec ID                                 : S_HDMV/PGS
Codec ID/Info                            : Picture based subtitle format used on BDs/HD-DVDs
Duration                                 : 1 h 15 min
Bit rate                                 : 32.8 kb/s
Count of elements                        : 1814
Stream size                              : 17.8 MiB (1%)
Language                                 : Portuguese
Default                                  : No
Forced                                   : No

Menu
00:00:00.000                             : en: Chapter 1
00:10:14.113                             : en: Chapter 2
00:19:48.104                             : en: Chapter 3
00:30:26.825                             : en: Chapter 4
00:39:49.721                             : en: Chapter 5
00:49:07.319                             : en: Chapter 6
01:00:21.117                             : en: Chapter 7
01:10:37.233                             : en: Chapter 8
01:13:26.402                             : en: Chapter 9

Source Information

Unique ID                                : 215871207807352573152236834434041991543 (0xA26748466ED7D4E952A992D4DF275177)
Complete name                            : All-Star.Superman.2011.1080p.BluRay.REMUX.AVC.DTS-HD.MA.5.1-EPSiLON.mkv
Format                                   : Matroska
Format version                           : Version 4
File size                                : 9.87 GiB
Duration                                 : 1 h 16 min
Overall bit rate mode                    : Variable
Overall bit rate                         : 18.4 Mb/s
Movie name                               : All-Star Superman
Encoded date                             : UTC 2017-09-12 14:57:49
Writing application                      : mkvmerge v15.0.0 ('Duel with the Devil') 64-bit
Writing library                          : libebml v1.3.5 + libmatroska v1.4.5

Video
ID                                       : 1
Format                                   : AVC
Format/Info                              : Advanced Video Codec
Format profile                           : [email protected]
Format settings                          : CABAC / 2 Ref Frames
Format settings, CABAC                   : Yes
Format settings, RefFrames               : 2 frames
Format settings, GOP                     : M=1, N=10
Codec ID                                 : V_MPEG4/ISO/AVC
Duration                                 : 1 h 16 min
Bit rate mode                            : Variable
Bit rate                                 : 15.9 Mb/s
Width                                    : 1 920 pixels
Height                                   : 1 080 pixels
Display aspect ratio                     : 16:9
Frame rate mode                          : Constant
Frame rate                               : 23.976 (24000/1001) FPS
Color space                              : YUV
Chroma subsampling                       : 4:2:0
Bit depth                                : 8 bits
Scan type                                : Progressive
Bits/(Pixel*Frame)                       : 0.320
Stream size                              : 8.52 GiB (86%)
Title                                    : MPEG-4 AVC Video / 15916 kbps / 1080p / 23.976 fps / 16:9 / High Profile 4.0
Language                                 : English
Default                                  : Yes
Forced                                   : No

Audio #1
ID                                       : 2
Format                                   : DTS XLL
Format/Info                              : Digital Theater Systems
Commercial name                          : DTS-HD Master Audio
Codec ID                                 : A_DTS
Duration                                 : 1 h 16 min
Bit rate mode                            : Variable
Bit rate                                 : 2 222 kb/s
Channel(s)                               : 6 channels
Channel layout                           : C L R Ls Rs LFE
Sampling rate                            : 48.0 kHz
Frame rate                               : 93.750 FPS (512 SPF)
Bit depth                                : 16 bits
Compression mode                         : Lossless
Stream size                              : 1.19 GiB (12%)
Title                                    : DTS-HD Master Audio / 5.1 / 48 kHz / 2221 kbps / 16-bit
Language                                 : English
Default                                  : Yes
Forced                                   : No

Audio #2
ID                                       : 3
Format                                   : AC-3
Format/Info                              : Audio Coding 3
Commercial name                          : Dolby Digital
Codec ID                                 : A_AC3
Duration                                 : 1 h 16 min
Bit rate mode                            : Constant
Bit rate                                 : 192 kb/s
Channel(s)                               : 2 channels
Channel layout                           : L R
Sampling rate                            : 48.0 kHz
Frame rate                               : 31.250 FPS (1536 SPF)
Bit depth                                : 16 bits
Compression mode                         : Lossy
Stream size                              : 105 MiB (1%)
Title                                    : Commentary by Producer Bruce Timm and Graphic Novel Author Grant Morrison
Language                                 : English
Service kind                             : Complete Main
Default                                  : No
Forced                                   : No

Text #1
ID                                       : 4
Format                                   : PGS
Codec ID                                 : S_HDMV/PGS
Codec ID/Info                            : Picture based subtitle format used on BDs/HD-DVDs
Duration                                 : 1 h 15 min
Bit rate                                 : 32.8 kb/s
Count of elements                        : 1864
Stream size                              : 17.8 MiB (0%)
Title                                    : SDH
Language                                 : English
Default                                  : No
Forced                                   : No

Text #2
ID                                       : 5
Format                                   : PGS
Codec ID                                 : S_HDMV/PGS
Codec ID/Info                            : Picture based subtitle format used on BDs/HD-DVDs
Duration                                 : 1 h 15 min
Bit rate                                 : 42.0 kb/s
Count of elements                        : 1992
Stream size                              : 22.8 MiB (0%)
Title                                    : SDH
Language                                 : German
Default                                  : No
Forced                                   : No

Text #3
ID                                       : 6
Format                                   : PGS
Codec ID                                 : S_HDMV/PGS
Codec ID/Info                            : Picture based subtitle format used on BDs/HD-DVDs
Duration                                 : 1 h 15 min
Bit rate                                 : 32.8 kb/s
Count of elements                        : 1814
Stream size                              : 17.8 MiB (0%)
Title                                    : Brazilian
Language                                 : Portuguese
Default                                  : No
Forced                                   : No

Menu
00:00:00.000                             : en: Chapter 1
00:10:14.113                             : en: Chapter 2
00:19:48.104                             : en: Chapter 3
00:30:26.825                             : en: Chapter 4
00:39:49.721                             : en: Chapter 5
00:49:07.319                             : en: Chapter 6
01:00:21.117                             : en: Chapter 7
01:10:37.233                             : en: Chapter 8
01:13:26.402                             : en: Chapter 9

.........................................................................................................................................

We have no issue with individuals posting or re-uploading our torrents on a platform we aren't on. However, if this is something you'd like to do, please do so in a 'as-is' format. We ask that you do not create a new torrent, include all descriptions you see above including the SEV logo, tags, notes and screenshots. If you'd like to become a permanent poster on a website we don't post to, feel free to get in contact with a Sublime Encoded Video member.


We are recruiting/training new members for SEV & seedbox providers as well as people to help out with subtitles.
As you already know, we deliver quality, so you know the standard.
If you're interested, feel free to contact any of the team members.


Similar Torrents
Type Name Size Added S L
HD Naked.and.Afraid.XL.S04E03.All-Stars-Africa.Strike...
958.11 MB 2018-05-20 17:44:48 337 69
HD Naked.and.Afraid.XL.S04E12.All-Stars-The.Lions.Den...
1.88 GB 2018-07-09 05:48:50 233 58
Video By the end of the year is the All-Starcum shotat t...
692.83 MB 2019-03-03 08:03:23 220 1199
HD Naked.and.Afraid.XL.S04E10.All-Stars-Top.Ten.Tap.O...
958.44 MB 2018-07-02 04:44:44 217 27
x264 Naked.and.Afraid.XL.S04E11.All-Stars.Fight.to.the....
1.19 GB 2018-07-02 06:58:27 204 34
HD NASCAR.Monster.Energy.Cup.Series.2018.05.19.All-St...
3.42 GB 2018-05-20 06:54:38 191 69
HD Naked.and.Afraid.XL.S04E05.All-Stars-Dead.Weight.7...
959.83 MB 2018-06-04 00:03:35 187 63
HD Naked.and.Afraid.XL.S04E07.All-Stars-Survivalists....
958.26 MB 2018-06-17 16:49:44 187 53
HD Naked.and.Afraid.XL.S04E09.All-Stars-Feeding.Frenz...
983.87 MB 2018-06-24 18:52:15 184 15
HD Naked.and.Afraid.XL.S04E02.All-Stars-Africa.Strike...
957.50 MB 2018-05-13 17:14:24 182 129

Loading...


Trackers:
udp://tracker.coppersurfer.tk:6969/announce

This Torrent also has backup trackers
URLSeedersLeechersCompleted
http://tracker.opentrackr.org:1337/announce000
http://tracker3.itzmx.com:6961/announce000

All-Star Superman (2011) 1080p BDRip x265 DTS-HD MA 5.1 Goki [SEV]
Files
All-Star Superman (2011) 1080p BDRip x265 DTS-HD MA 5.1 Goki [SEV]-banner.jpg (90.33 kB)
All-Star Superman (2011) 1080p BDRip x265 DTS-HD MA 5.1 Goki [SEV]-clearart.png (455.39 kB)
All-Star Superman (2011) 1080p BDRip x265 DTS-HD MA 5.1 Goki [SEV]-clearlogo.png (205.91 kB)
All-Star Superman (2011) 1080p BDRip x265 DTS-HD MA 5.1 Goki [SEV]-disc.png (673.50 kB)
All-Star Superman (2011) 1080p BDRip x265 DTS-HD MA 5.1 Goki [SEV]-fanart.jpg (179.15 kB)
All-Star Superman (2011) 1080p BDRip x265 DTS-HD MA 5.1 Goki [SEV]-logo.png (205.91 kB)
All-Star Superman (2011) 1080p BDRip x265 DTS-HD MA 5.1 Goki [SEV]-poster.jpg (81.64 kB)
All-Star Superman (2011) 1080p BDRip x265 DTS-HD MA 5.1 Goki [SEV]-thumb.jpg (146.40 kB)
All-Star Superman (2011) 1080p BDRip x265 DTS-HD MA 5.1 Goki [SEV].mkv (3.41 GB)
All-Star Superman (2011) 1080p BDRip x265 DTS-HD MA 5.1 Goki [SEV].nfo (4.95 kB)


Comments:
No comments still posted
Loading...
Powered by TT | Page Generated In 0.823129 secs.
| RSS Feed | Feed Info