Warning! Use a VPN When Downloading Torrents!
Your IP Address is .   Location is
Your Internet Provider is tracking your torrent activity!  Hide your IP ADDRESS with a VPN!
We strongly recommend using Trust.Zone VPN to anonymize your torrenting. It's FREE!
Get VPN Now for FREE!
First Cams

Xvid/x264



Non-English

Site Friends
      ETTV

      WorldWide Torrents

      Free Tutorials

      Aiosearch


Loading...

The Hate U Give - Il coraggio della verità (2019).1080p.H264.italian.english.Ac3-5.1.sub.ita-MIRCre...


Download torrent:      
Info Hash:  d9746bda3dfe06039001b93fb2b671b4f7f9acdf
Category:  Movies  > HD
Torrent language:  English  
Seeds | Leech:  308 | 133
Complete:   1,768
Health:   
Total Size:  3.89 GB
Added By:        robbyrs
Date Added:  22-05-2019 07:25:pm | Last Edit:  23-05-2019 03:18:pm

Un système d'onglets en javascript
Description Trackers Files Comments Download
The Hate U Give - Il coraggio della verità (2019).1080p.H264.italian.english.Ac3-5.1.sub.ita-MIRCrew


NO FOUND ONLY ORIGINAL RELEASE

My release is always in double track audio italian and Original audio
for select it use VLC or dvd player home
not use wmp

Il coraggio della verità - The Hate U Give (2019)

Quality MIRCrew on HD 1080p da  4,0 gb









GENERE: Drammatico
ANNO: 2018
REGIA: George Tillman Jr.
PAESE: USA
DURATA: 133 Min



Amandla Stenberg, Regina Hall, Russell Hornsby, Anthony Mackie, Issa Rae, Common, K.J. Apa, Algee Smith, Dominique Fishback, Sabrina Carpenter



Starr si muove tra due mondi: abita in un quartiere di colore dove imperversano le gang ma frequenta una scuola prestigiosa, soprattutto per volere della madre, determinata a costruire un futuro migliore per i suoi figli.



Starr witnesses the fatal shooting of her childhood best friend Khalil at the hands of a police officer. Now, facing pressure from all sides of the community, Starr must find her voice and stand up for what's right.

 





General
Unique ID                                : 176100798368027610897666471423528262553 (0x847BC7B35F364BA48EBA84ED7DFDDB99)
Complete name                            : Il coraggio della verità - The Hate U Give (2019).1080p.h264.ita.eng.sub.ita-MIRCrew\Il coraggio della verità - The Hate U Give (2019).1080p.h264.ita.eng.sub.ita-MIRCrew.mkv
Format                                   : Matroska
Format version                           : Version 2
File size                                : 3.89 GiB
Duration                                 : 2h 13mn
Overall bit rate                         : 4 183 Kbps
Movie name                               : MIRCrew
Encoded date                             : UTC 2019-05-20T21:12:51Z
Writing application                      : mkvmerge v5.8.0 ('No Sleep / Pillow') built on Sep  2 2012 15:37:04
Writing library                          : Lavf55.12.0

Video
ID                                       : 1
Format                                   : AVC
Format/Info                              : Advanced Video Codec
Format profile                           : [email protected]
Format settings, CABAC                   : Yes
Format settings, ReFrames                : 4 frames
Codec ID                                 : V_MPEG4/ISO/AVC
Duration                                 : 2h 13mn
Bit rate                                 : 3 300 Kbps
Width                                    : 1 920 pixels
Height                                   : 800 pixels
Display aspect ratio                     : 2.40:1
Frame rate                               : 23.976 fps
Color space                              : YUV
Chroma subsampling                       : 4:2:0
Bit depth                                : 8 bits
Scan type                                : Progressive
Bits/(Pixel*Frame)                       : 0.090
Stream size                              : 2.98 GiB (77%)
Title                                    : MIRCrew
Writing library                          : x264 core 142 r2479 dd79a61
Encoding settings                        : cabac=1 / ref=1 / deblock=1:0:0 / analyse=0x1:0x111 / me=hex / subme=2 / psy=1 / psy_rd=1.00:0.00 / mixed_ref=0 / me_range=16 / chroma_me=1 / trellis=0 / 8x8dct=0 / cqm=0 / deadzone=21,11 / fast_pskip=1 / chroma_qp_offset=0 / threads=9 / lookahead_threads=3 / sliced_threads=0 / nr=0 / decimate=1 / interlaced=0 / bluray_compat=0 / constrained_intra=0 / bframes=3 / b_pyramid=2 / b_adapt=1 / b_bias=0 / direct=1 / weightb=1 / open_gop=0 / weightp=1 / keyint=240 / keyint_min=24 / scenecut=40 / intra_refresh=0 / rc_lookahead=10 / rc=abr / mbtree=1 / bitrate=3300 / ratetol=1.0 / qcomp=0.60 / qpmin=0 / qpmax=69 / qpstep=4 / vbv_maxrate=50000 / vbv_bufsize=62500 / nal_hrd=none / filler=0 / ip_ratio=1.40 / aq=1:1.00
Language                                 : Italian
Default                                  : Yes
Forced                                   : No
Color primaries                          : BT.709-5, BT.1361, IEC 61966-2-4, SMPTE RP177
Transfer characteristics                 : BT.709-5, BT.1361
Matrix coefficients                      : BT.709-5, BT.1361, IEC 61966-2-4 709, SMPTE RP177

Audio #1
ID                                       : 2
Format                                   : AC-3
Format/Info                              : Audio Coding 3
Mode extension                           : CM (complete main)
Codec ID                                 : A_AC3
Duration                                 : 2h 13mn
Bit rate mode                            : Constant
Bit rate                                 : 448 Kbps
Channel(s)                               : 6 channels
Channel positions                        : Front: L C R, Side: L R, LFE
Sampling rate                            : 48.0 KHz
Bit depth                                : 16 bits
Compression mode                         : Lossy
Delay relative to video                  : -5ms
Stream size                              : 426 MiB (11%)
Title                                    : Ita Ac3 5.1
Language                                 : Italian
Default                                  : Yes
Forced                                   : No

Audio #2
ID                                       : 3
Format                                   : AC-3
Format/Info                              : Audio Coding 3
Mode extension                           : CM (complete main)
Codec ID                                 : A_AC3
Duration                                 : 2h 13mn
Bit rate mode                            : Constant
Bit rate                                 : 448 Kbps
Channel(s)                               : 6 channels
Channel positions                        : Front: L C R, Side: L R, LFE
Sampling rate                            : 48.0 KHz
Bit depth                                : 16 bits
Compression mode                         : Lossy
Delay relative to video                  : -5ms
Stream size                              : 426 MiB (11%)
Title                                    : Eng Ac3 5.1
Language                                 : English
Default                                  : No
Forced                                   : No

Menu
00:00:00.000                             : :00:00:00.000
00:03:55.944                             : :00:03:55.777
00:08:18.206                             : :00:08:18.081
00:13:14.377                             : :00:13:14.252
00:19:32.212                             : :00:19:32.129
00:24:48.403                             : :00:24:48.320
00:29:34.397                             : :00:29:34.314
00:34:54.300                             : :00:34:54.217
00:40:09.615                             : :00:40:09.532
00:45:05.494                             : :00:45:05.411
00:50:09.339                             : :00:50:09.215
00:58:27.670                             : :00:58:27.587
01:03:58.459                             : :01:03:58.376
01:10:01.071                             : :01:10:00.988
01:14:51.361                             : :01:14:51.278
01:19:50.869                             : :01:19:50.786
01:27:09.682                             : :01:27:09.599
01:32:11.818                             : :01:32:11.693
01:37:36.308                             : :01:37:36.225
01:43:59.149                             : :01:43:59.066
01:49:39.281                             : :01:49:39.156
01:56:20.557                             : :01:56:20.432
01:58:00.239                             : :01:58:00.156
02:03:51.048                             : :02:03:50.965






Similar Torrents
Type Name Size Added S L
Divx/Xvid The Hate U Give.2018.HC.HDRip.XviD.AC3-EVO
1.39 GB 2018-11-04 15:18:49 2325 1421
Non-English The Hate U Give (2018) 720p BluRay x264 Dual Audio...
1.10 GB 2019-02-07 15:20:06 956 1328
HD The Hate U Give 2018 720p HC HDRip x264 [MW]
1.17 GB 2018-11-03 15:24:09 912 196
HEVC/x265 The Hate U Give - Il coraggio della verità AC3 5....
2.68 GB 2019-05-20 23:43:26 371 240
HD The Hate U Give - Il coraggio della verità (2019)...
2.59 GB 2019-05-22 19:22:36 328 127
Divx/Xvid The Hate U Give.2018.HDRip.XviD.AC3-EVO
1.39 GB 2019-01-08 08:51:47 311 212
h.264/x264 The Hate U Give.2018.HC.HDRip.XviD.AC3-EVO[EtMovie...
1.39 GB 2018-11-04 14:36:16 305 96
HD The Hate U Give.2018.1080p.HC.HDRip.X264.AC3-EVO[E...
3.42 GB 2018-11-04 14:38:01 281 127
Divx/Xvid The Hate U Give.2018.HDRip.XViD.AC3-ETRG
1.32 GB 2019-01-08 10:25:10 193 265
h.264/x264 Il coraggio della verità - The Hate U Give (2018)...
2.07 GB 2019-06-24 18:13:07 184 78

Loading...


Trackers:
udp://tracker.coppersurfer.tk:6969/announce

The Hate U Give - Il coraggio della verità (2019).1080p.H264.italian.english.Ac3-5.1.sub.ita-MIRCrew
Files
Il coraggio della verità - The Hate U Give (2019).1080p.h264.ita.eng.sub.ita-MIRCrew.ita.srt (128.34 kB)
Il coraggio della verità - The Hate U Give (2019).1080p.h264.ita.eng.sub.ita-MIRCrew.mkv (3.89 GB)
Il coraggio della verità - The Hate U Give (2019).1080p.h264.ita.eng.sub.ita-MIRCrew.srt (852.00 B)


Comments:
No comments still posted
Loading...
Powered by TT | Page Generated In 0.170777 secs.
| RSS Feed | Feed Info