Warning! Use a VPN When Downloading Torrents!
Your IP Address is .   Location is
Your Internet Provider is tracking your torrent activity!  Hide your IP ADDRESS with a VPN!
We strongly recommend using Trust.Zone VPN to anonymize your torrenting. It's FREE!
Get VPN Now for FREE!
First Cams

Xvid/x264



Non-English

Site Friends
      ETTV

      WorldWide Torrents

      Free Tutorials

      Aiosearch


Loading...

The Mechanic - Professione Assassino (2011).1080p.H264.italian.english.Ac3-5.1.sub.ita-MIRCrew


Download torrent:      
Info Hash:  a3ada63c1b7409fd97c9531bf2217f7594e5f841
Category:  Movies  > HD
Torrent language:  English  
Seeds | Leech:  265 | 105
Complete:   1,291
Health:   
Total Size:  2.62 GB
Added By:        robbyrs
Date Added:  22-05-2019 05:27:pm | Last Edit:  23-05-2019 01:38:pm

Un système d'onglets en javascript
Description Trackers Files Comments Download
The Mechanic - Professione Assassino (2011).1080p.H264.italian.english.Ac3-5.1.sub.ita-MIRCrew


NO FOUND ONLY ORIGINAL RELEASE

My release is always in double track audio italian and Original audio
for select it use VLC or dvd player home
not use wmp

Professione Assassino - The Mechanic (2011)

Quality MIRCrew on HD 720p da  2,6 gb









Titolo originale The Mechanic
Lingua originale inglese
Paese di produzione Stati Uniti d'America
Anno 2011
Durata 93 minuti
Genere azione, thriller
Regia Simon West
Soggetto Lewis John Carlino
Sceneggiatura Richard Wenk, Lewis John Carlino



   Jason Statham: Arthur Bishop
   Ben Foster: Steve McKenna
   Tony Goldwyn: Dean Sanderson
   Donald Sutherland: Harry McKenna
   Jeff Chase: Burke
   Mini Andén: Sarah
   John McConnell: Vaughn
   Stuart Greer: Ralph
   Lance Nichols: Henry
   David Leitch: Sebastian
   Christa Campbell: Kelly
   James Logan: Jorge Lara



Arthur Bishop è tra i sicari più richiesti al mondo: meticolosissimo, non sbaglia un omicidio, riuscendo alla perfezione nel far sembrare gli assassinii dei normali incidenti, dei suicidi o degli atti di criminalità spicciola



Arthur Bishop (Jason Statham) is a 'mechanic' - an elite assassin with a strict code and unique talent for cleanly eliminating targets. It's a job that requires professional perfection and total detachment, and Bishop is the best in the business.

 





General
Unique ID                                : 242479479155025167930841454505818159177 (0xB66BD956C7B0D2E78B140D5D76997849)
Complete name                            : Professione Assassino - The Mechanic (2011)\Professione Assassino - The Mechanic (2011).1080p.ita.eng.sub.ita-MIRCrew.mkv
Format                                   : Matroska
Format version                           : Version 2
File size                                : 2.61 GiB
Duration                                 : 1h 32mn
Overall bit rate                         : 4 036 Kbps
Movie name                               : MIRCrew
Encoded date                             : UTC 2019-05-20 15:26:28
Writing application                      : mkvmerge v5.8.0 ('No Sleep / Pillow') built on Sep  2 2012 15:37:04
Writing library                          : Lavf54.63.100
COMMENT                                  : mircrew-releases

Video
ID                                       : 1
Format                                   : AVC
Format/Info                              : Advanced Video Codec
Format profile                           : [email protected]
Format settings, CABAC                   : Yes
Format settings, ReFrames                : 2 frames
Codec ID                                 : V_MPEG4/ISO/AVC
Duration                                 : 1h 32mn
Bit rate                                 : 3 300 Kbps
Width                                    : 1 920 pixels
Height                                   : 816 pixels
Display aspect ratio                     : 2.35:1
Frame rate mode                          : Variable
Frame rate                               : 24.000 fps
Color space                              : YUV
Chroma subsampling                       : 4:2:0
Bit depth                                : 8 bits
Scan type                                : Progressive
Bits/(Pixel*Frame)                       : 0.088
Stream size                              : 2.06 GiB (79%)
Title                                    : MIRCrew
Writing library                          : x264 core 130 r2273
Encoding settings                        : cabac=1 / ref=2 / deblock=1:0:0 / analyse=0x1:0x131 / me=hex / subme=7 / psy=1 / psy_rd=1.00:0.00 / mixed_ref=0 / me_range=16 / chroma_me=1 / trellis=1 / 8x8dct=0 / cqm=0 / deadzone=21,11 / fast_pskip=1 / chroma_qp_offset=-2 / threads=9 / lookahead_threads=1 / sliced_threads=0 / nr=0 / decimate=1 / interlaced=0 / bluray_compat=0 / constrained_intra=0 / bframes=3 / b_pyramid=0 / b_adapt=1 / b_bias=0 / direct=3 / weightb=1 / open_gop=0 / weightp=2 / keyint=240 / keyint_min=24 / scenecut=40 / intra_refresh=0 / rc_lookahead=40 / rc=abr / mbtree=1 / bitrate=3300 / ratetol=1.0 / qcomp=0.60 / qpmin=10 / qpmax=69 / qpstep=4 / vbv_maxrate=24000 / vbv_bufsize=24000 / nal_hrd=none / ip_ratio=1.40 / aq=1:1.00
Language                                 : Italian
Default                                  : Yes
Forced                                   : No

Audio #1
ID                                       : 2
Format                                   : AC-3
Format/Info                              : Audio Coding 3
Mode extension                           : CM (complete main)
Codec ID                                 : A_AC3
Duration                                 : 1h 32mn
Bit rate mode                            : Constant
Bit rate                                 : 384 Kbps
Channel(s)                               : 6 channels
Channel positions                        : Front: L C R, Side: L R, LFE
Sampling rate                            : 48.0 KHz
Bit depth                                : 16 bits
Compression mode                         : Lossy
Delay relative to video                  : -5ms
Stream size                              : 255 MiB (10%)
Title                                    : Ita Ac3 5.1
Language                                 : Italian
Default                                  : Yes
Forced                                   : No

Audio #2
ID                                       : 3
Format                                   : AC-3
Format/Info                              : Audio Coding 3
Mode extension                           : CM (complete main)
Codec ID                                 : A_AC3
Duration                                 : 1h 32mn
Bit rate mode                            : Constant
Bit rate                                 : 384 Kbps
Channel(s)                               : 6 channels
Channel positions                        : Front: L C R, Side: L R, LFE
Sampling rate                            : 48.0 KHz
Bit depth                                : 16 bits
Compression mode                         : Lossy
Delay relative to video                  : -5ms
Stream size                              : 255 MiB (10%)
Title                                    : Eng Ac3 5.1
Language                                 : English
Default                                  : No
Forced                                   : No

Menu
00:00:00.000                             : :01
00:04:55.292                             : :02
00:07:53.667                             : :03
00:12:46.375                             : :04
00:17:05.708                             : :05
00:22:25.042                             : :06
00:27:18.292                             : :07
00:30:27.875                             : :08
00:37:29.458                             : :09
00:40:55.083                             : :10
00:51:13.125                             : :11
00:59:56.250                             : :12
01:03:48.542                             : :13
01:08:31.750                             : :14
01:14:44.250                             : :15
01:19:28.375                             : :16






Similar Torrents
Type Name Size Added S L
HD The Mechanic Triple Film Box Set - Action 1972-201...
3.84 GB 2019-02-14 20:04:03 331 599
Audio books The Mechanic: The Secret World of the F1 Pitlane -...
201.18 MB 2019-04-04 16:44:55 204 28
Video [Bang] Gabriela Lopez Gets A Free Repair After Fuc...
550.67 MB 2019-02-26 08:39:03 177 102
HD The Mechanic Triple Film Box Set - Action 1972-201...
10.43 GB 2019-02-13 18:03:11 120 154
Video Amateur - The Mechanic (2018) 584p
541.03 MB 2019-01-15 15:41:53 111 28
HD Video Anna Von Freienwalde - The Mechanic (2019) 1080p
836.41 MB 2019-01-13 11:33:31 91 14
Dubs/Dual Audio The Mechanic Duology (2012)(2012) Bluray 720p Holl...
958.42 MB 2018-09-29 09:27:41 91 55
HEVC/x265 Pokemon the Movie - Volcanion and the Mechanical M...
3.78 GB 2019-06-22 09:37:35 80 61
Video Stacy (Stacy Fucks The Mechanic So He Will Fix Her...
538.78 MB 2018-12-25 08:13:54 68 13
Video Bang Roadside XXX Penelope Fucks The Mechanic For ...
542.34 MB 2019-03-19 14:57:47 52 9

Loading...


Trackers:
udp://tracker.coppersurfer.tk:6969/announce

The Mechanic - Professione Assassino (2011).1080p.H264.italian.english.Ac3-5.1.sub.ita-MIRCrew
Files
Professione Assassino - The Mechanic (2011).1080p.ita.eng.sub.ita-MIRCrew.idx (555.00 B)
Professione Assassino - The Mechanic (2011).1080p.ita.eng.sub.ita-MIRCrew.ita.idx (27.35 kB)
Professione Assassino - The Mechanic (2011).1080p.ita.eng.sub.ita-MIRCrew.ita.sub (3.67 MB)
Professione Assassino - The Mechanic (2011).1080p.ita.eng.sub.ita-MIRCrew.mkv (2.61 GB)
Professione Assassino - The Mechanic (2011).1080p.ita.eng.sub.ita-MIRCrew.sub (26.00 kB)


Comments:
No comments still posted
Loading...
Powered by TT | Page Generated In 0.162354 secs.
| RSS Feed | Feed Info