Warning! Use a VPN When Downloading Torrents!
Your IP Address is .   Location is
Your Internet Provider is tracking your torrent activity!  Hide your IP ADDRESS with a VPN!
We strongly recommend using Trust.Zone VPN to anonymize your torrenting. It's FREE!
Get VPN Now for FREE!
First Cams

Xvid/x264



Non-English

Site Friends
      ETTV

      WorldWide Torrents

      Free Tutorials

      Aiosearch


Loading...

Hilda Crane - Paura di amare (1956).H264.italian.english.Ac3.sub.ita-MIRCrew


Download torrent:      
Info Hash:  d480753b7d2f75b4ae41f7455b078ce088cfa708
Category:  Movies  > HD
Torrent language:  English  
Seeds | Leech:  54 | 17
Complete:   331
Health:   
Total Size:  1,017.87 MB
Added By:        robbyrs
Date Added:  20-05-2019 03:19:pm | Last Edit:  21-05-2019 12:34:pm

Un système d'onglets en javascript
Description Trackers Files Comments Download
Hilda Crane - Paura di amare (1956).H264.italian.english.Ac3.sub.ita-MIRCrew


NO FOUND ONLY ORIGINAL RELEASE

My release is always in double track audio italian and Original audio
for select it use VLC or dvd player home
not use wmp

Paura di amare - Hilda Crane (1956)










Titolo originale Hilda Crane
Lingua originale inglese
Paese di produzione Stati Uniti d'America
Anno 1956
Durata 87 min
Rapporto 2.35 : 1
Genere drammatico
Regia Philip Dunne
Soggetto Samson Raphaelson
Sceneggiatura Philip Dunne



   Jean Simmons: Hilda Crane
   Guy Madison: Russell Burns
   Jean-Pierre Aumont: Prof. Jacques de Lisle
   Judith Evelyn: Mrs. Stella Crane
   Evelyn Varden: Mrs. Burns
   Peggy Knudsen: Nell Bromley
   Gregg Palmer: Dink Bromley
   Richard Garrick: dottor Joe Francis



Reduce da due divorzi, Hilda Crane non nutre nuovi sogni matrimoniali. Di parere diverso è il suo partner del momento, Russell Burns, che vorrebbe sposarla nonostante l'opposizione della madre. Intanto, all'orizzonte spunta un altro pretendente.



Twice divorced Hilda Crane feeling she's run out of chances returns to her mother's house in her small hometown and tries to decide what to do next while still hoping to hold onto her independence. That proves to be a challenge.








General
Unique ID                                : 201117681560479576680188396547750364182 (0x974DDB454EDA414BA91EF53502320416)
Complete name                            : Paura di amare - Hilda Crane (1956).h264.ita.eng.sub.ita-MIRCrew\Paura di amare - Hilda Crane (1956).h264.ita.eng.sub.ita-MIRCrew.mkv
Format                                   : Matroska
Format version                           : Version 2
File size                                : 1 013 MiB
Duration                                 : 1h 23mn
Overall bit rate                         : 1 693 Kbps
Movie name                               : MIRCrew
Encoded date                             : UTC 2019-04-10T16:34:03Z
Writing application                      : mkvmerge v5.8.0 ('No Sleep / Pillow') built on Sep  2 2012 15:37:04
Writing library                          : Lavf55.12.0

Video
ID                                       : 1
Format                                   : AVC
Format/Info                              : Advanced Video Codec
Format profile                           : [email protected]
Format settings, CABAC                   : Yes
Format settings, ReFrames                : 4 frames
Codec ID                                 : V_MPEG4/ISO/AVC
Duration                                 : 1h 23mn
Bit rate                                 : 1 300 Kbps
Width                                    : 720 pixels
Height                                   : 304 pixels
Display aspect ratio                     : 2.35:1
Frame rate                               : 25.000 fps
Color space                              : YUV
Chroma subsampling                       : 4:2:0
Bit depth                                : 8 bits
Scan type                                : Progressive
Bits/(Pixel*Frame)                       : 0.238
Stream size                              : 763 MiB (75%)
Title                                    : MIRCrew
Writing library                          : x264 core 142 r2479 dd79a61
Encoding settings                        : cabac=1 / ref=1 / deblock=1:-1:-1 / analyse=0x1:0x111 / me=hex / subme=2 / psy=1 / psy_rd=1.00:0.15 / mixed_ref=0 / me_range=16 / chroma_me=1 / trellis=0 / 8x8dct=0 / cqm=0 / deadzone=21,11 / fast_pskip=1 / chroma_qp_offset=0 / threads=9 / lookahead_threads=2 / sliced_threads=0 / nr=0 / decimate=1 / interlaced=0 / bluray_compat=0 / constrained_intra=0 / bframes=3 / b_pyramid=2 / b_adapt=1 / b_bias=0 / direct=1 / weightb=1 / open_gop=0 / weightp=1 / keyint=250 / keyint_min=25 / scenecut=40 / intra_refresh=0 / rc_lookahead=10 / rc=abr / mbtree=1 / bitrate=1300 / ratetol=1.0 / qcomp=0.60 / qpmin=0 / qpmax=69 / qpstep=4 / vbv_maxrate=50000 / vbv_bufsize=62500 / nal_hrd=none / filler=0 / ip_ratio=1.40 / aq=1:1.00
Language                                 : Italian
Default                                  : Yes
Forced                                   : No
Color primaries                          : BT.470-6 System B, BT.470-6 System G, BT.601-6 625, BT.1358 625, BT.1700 625 PAL, BT.1700 625 SECAM
Transfer characteristics                 : BT.709-5, BT.1361
Matrix coefficients                      : BT.601-6 525, BT.1358 525, BT.1700 NTSC, SMPTE 170M

Audio #1
ID                                       : 2
Format                                   : AC-3
Format/Info                              : Audio Coding 3
Mode extension                           : CM (complete main)
Codec ID                                 : A_AC3
Duration                                 : 1h 23mn
Bit rate mode                            : Constant
Bit rate                                 : 192 Kbps
Channel(s)                               : 2 channels
Channel positions                        : Front: L R
Sampling rate                            : 48.0 KHz
Bit depth                                : 16 bits
Compression mode                         : Lossy
Delay relative to video                  : -5ms
Stream size                              : 115 MiB (11%)
Title                                    : Ita Ac3
Language                                 : Italian
Default                                  : Yes
Forced                                   : No

Audio #2
ID                                       : 3
Format                                   : AC-3
Format/Info                              : Audio Coding 3
Mode extension                           : CM (complete main)
Codec ID                                 : A_AC3
Duration                                 : 1h 23mn
Bit rate mode                            : Constant
Bit rate                                 : 192 Kbps
Channel(s)                               : 2 channels
Channel positions                        : Front: L R
Sampling rate                            : 48.0 KHz
Bit depth                                : 16 bits
Compression mode                         : Lossy
Delay relative to video                  : -5ms
Stream size                              : 115 MiB (11%)
Title                                    : Eng Ac3
Language                                 : English
Default                                  : No
Forced                                   : No

Text #1
ID                                       : 4
Format                                   : VobSub
Muxing mode                              : zlib
Codec ID                                 : S_VOBSUB
Codec ID/Info                            : The same subtitle format used on DVDs
Language                                 : Italian
Default                                  : No
Forced                                   : No

Text #2
ID                                       : 5
Format                                   : VobSub
Muxing mode                              : zlib
Codec ID                                 : S_VOBSUB
Codec ID/Info                            : The same subtitle format used on DVDs
Language                                 : Italian
Default                                  : No
Forced                                   : No

Menu
00:00:00.000                             : :Chapter 1
00:06:58.880                             : :Chapter 2
00:13:56.880                             : :Chapter 3
00:20:54.880                             : :Chapter 4
00:27:52.880                             : :Chapter 5
00:34:50.880                             : :Chapter 6
00:41:48.880                             : :Chapter 7
00:48:46.880                             : :Chapter 8
00:55:44.880                             : :Chapter 9
01:02:42.880                             : :Chapter 10
01:09:40.880                             : :Chapter 11
01:16:38.880                             : :Chapter 12






Similar Torrents
Type Name Size Added S L
h.264/x264 Hilda Crane 1956 720p BluRay x264-SADPANDA
4.37 GB 2018-08-05 19:27:53 7 1
h.264/x264 Hilda Crane 1956 1080p BluRay x264-SADPANDA
7.95 GB 2018-08-05 19:37:45 1 1

Loading...


Trackers:
udp://tracker.coppersurfer.tk:6969/announce

Hilda Crane - Paura di amare (1956).H264.italian.english.Ac3.sub.ita-MIRCrew
Files
Paura di amare - Hilda Crane (1956).h264.ita.eng.sub.ita-MIRCrew.idx (511.00 B)
Paura di amare - Hilda Crane (1956).h264.ita.eng.sub.ita-MIRCrew.ita.idx (58.51 kB)
Paura di amare - Hilda Crane (1956).h264.ita.eng.sub.ita-MIRCrew.ita.sub (5.21 MB)
Paura di amare - Hilda Crane (1956).h264.ita.eng.sub.ita-MIRCrew.mkv (1,012.59 MB)
Paura di amare - Hilda Crane (1956).h264.ita.eng.sub.ita-MIRCrew.sub (10.00 kB)


Comments:
No comments still posted
Loading...
Powered by TT | Page Generated In 0.163533 secs.
| RSS Feed | Feed Info