Warning! Use a VPN When Downloading Torrents!
Your IP Address is .   Location is
Your Internet Provider is tracking your torrent activity!  Hide your IP ADDRESS with a VPN!
We strongly recommend using Trust.Zone VPN to anonymize your torrenting. It's FREE!
Get VPN Now for FREE!
First Cams

Xvid/x264



Non-English

Site Friends
      ETTV

      WorldWide Torrents

      Free Tutorials

      Aiosearch


Loading...

NASCAR 2019 MECS Monster Energy Nascar All-Star Race Charlotte HDTV x264 720


Download torrent:      
Info Hash:  0f5f89c78e2354a13a7d0cbdfd579e667ea3f523
Category:  TV  > Sports
Torrent language:  English  
Seeds | Leech:  138 | 58
Complete:   332
Health:   
Total Size:  3.40 GB
Added By:        HackRF
Date Added:  19-05-2019 08:07:am | Last Edit:  19-05-2019 09:04:pm

Un système d'onglets en javascript
Description Trackers Files Comments Download
Nascar 2019 Monster Energy Series

Monster Energy NASCAR All-Star Race
Charlotte Motor Speedway
Saturday, May 18
8:00 PM
FOX







General
Complete name                            : NASCAR 2019 MECS Monster Energy Nascar All-Star Race Charlotte HDTV x264 720.mkv
Format                                   : Matroska
Format version                           : Version 4
File size                                : 3.40 GiB
Duration                                 : 1 h 56 min
Overall bit rate                         : 4 186 kb/s
Encoded date                             : UTC 2019-05-19 04:42:36
Writing application                      : mkvmerge v33.0.0 ('A Little Bit of Madness') 64-bit
Writing library                          : libebml v1.3.7 + libmatroska v1.5.0

Video
ID                                       : 1
Format                                   : AVC
Format/Info                              : Advanced Video Codec
Format profile                           : [email protected]
Format settings                          : CABAC / 5 Ref Frames
Format settings, CABAC                   : Yes
Format settings, RefFrames               : 5 frames
Codec ID                                 : V_MPEG4/ISO/AVC
Duration                                 : 1 h 56 min
Bit rate                                 : 3 798 kb/s
Width                                    : 1 280 pixels
Height                                   : 720 pixels
Display aspect ratio                     : 16:9
Frame rate mode                          : Constant
Frame rate                               : 59.940 (60000/1001) FPS
Color space                              : YUV
Chroma subsampling                       : 4:2:0
Bit depth                                : 8 bits
Scan type                                : Progressive
Bits/(Pixel*Frame)                       : 0.069
Stream size                              : 3.09 GiB (91%)
Writing library                          : x264 core 148 r2744 b97ae06
Default                                  : Yes
Forced                                   : No

Audio
ID                                       : 2
Format                                   : AC-3
Format/Info                              : Audio Coding 3
Commercial name                          : Dolby Digital
Codec ID                                 : A_AC3
Duration                                 : 1 h 56 min
Bit rate mode                            : Constant
Bit rate                                 : 384 kb/s
Channel(s)                               : 6 channels
Channel layout                           : L R C LFE Ls Rs
Sampling rate                            : 48.0 kHz
Frame rate                               : 31.250 FPS (1536 SPF)
Bit depth                                : 16 bits
Compression mode                         : Lossy
Stream size                              : 320 MiB (9%)
Language                                 : new
Service kind                             : Complete Main
Default                                  : Yes
Forced                                   : No



Similar Torrents
Type Name Size Added S L
Sports NASCAR 2019 MECS Talladega GEICO 500 HDTV x264 720
3.78 GB 2019-04-29 00:47:28 296 114
Sports NASCAR 2019 MECS FireKeepers Casino 400 Michigan H...
3.84 GB 2019-06-11 05:06:09 243 84
Sports NASCAR 2019 MECS Coca-Cola 600 Charlotte HDTV x264...
6.80 GB 2019-05-27 08:46:45 198 155
Sports NASCAR 2019 MECS O’Reilly Auto Parts 500 HDTV x2...
3.95 GB 2019-04-01 02:37:04 168 173
Sports NASCAR 2019 MECS Pocono 400 HDTV x264 720
3.46 GB 2019-06-03 00:53:23 160 78
Sports NASCAR 2019 MECS Bristol Food City 500 HDTV x264 7...
3.93 GB 2019-04-08 02:01:58 159 181
Sports NASCAR 2019 MECS STP-500 Martinsville HDTV x264 72...
5.11 GB 2019-03-25 01:03:54 154 105
Sports NASCAR 2019 MECS Richmond Toyota Owners 400 HDTV x...
4.42 GB 2019-04-14 06:38:31 153 100
Sports NASCAR 2019 MECS Auto Club 400 Fontana HDTV x264 7...
3.49 GB 2019-03-18 01:54:31 115 24
Sports NASCAR 2019 MECS Monster Energy Open Charlotte HDT...
1.53 GB 2019-05-19 04:50:00 60 32

Loading...


Trackers:
udp://tracker.torrent.eu.org:451/announce

NASCAR 2019 MECS Monster Energy Nascar All-Star Race Charlotte HDTV x264 720
Files
Downloaded From.txt (121.00 B)
NASCAR 2019 MECS Monster Energy Nascar All-Star Race Charlotte HDTV x264 720.mkv (3.40 GB)
nascar.txt (4.04 kB)


Comments:
No comments still posted
Loading...
Powered by TT | Page Generated In 0.151046 secs.
| RSS Feed | Feed Info