[Login] or [Signup]

First Cams

Xvid/x264



Non-English

Loading...

[Prof] Death Note (1080p x265 HEVC 10bit AAC Dual Audio)


Complete Name :[Prof] Death Note (1080p x265 HEVC 10bit AAC Dual Audio)
Download torrent:    [Prof] Death Note (1080p x265 HEVC 10bit AAC Dual Audio).torrent
Info Hash:08d8df1fbd957f2d0156036767f395654189122b
Category:Anime  > All
Torrent language:English  
Seeds | Leech:13 | 25
Complete: 75
Health:
Total Size:25.45 GB
Downloaded:10 Times
Added By:      Prof
Date Added:17-07-2018 07:13:pm | Last Edit:  13-09-2018 04:52:pm

 

Main Technical Comments
Format                                   : Matroska
Format version                           : Version 4 / Version 2
File size                                : 790 MiB
Duration                                 : 22 min 57 s
Overall bit rate                         : 4 812 kb/s
Movie name                               : DEATH_NOTE_01_-_08.Title14
Encoded date                             : UTC 2018-06-18 15:43:29
Writing application                      : mkvmerge v9.6.0 ('Slave To Your Mind') 64bit
Writing library                          : libebml v1.3.4 + libmatroska v1.4.5

Video
ID                                       : 1
Format                                   : HEVC
Format/Info                              : High Efficiency Video Coding
Format profile                           : Main [email protected]@Main
Codec ID                                 : V_MPEGH/ISO/HEVC
Duration                                 : 22 min 56 s
Bit rate                                 : 4 625 kb/s
Width                                    : 1 920 pixels
Height                                   : 1 080 pixels
Display aspect ratio                     : 16:9
Frame rate mode                          : Constant
Frame rate                               : 23.976 (24000/1001) FPS
Color space                              : YUV
Chroma subsampling                       : 4:2:0
Bit depth                                : 10 bits
Bits/(Pixel*Frame)                       : 0.093
Stream size                              : 759 MiB (96%)
Writing library                          : x265 2.1+69-c97c64ab8b8e:[Windows][GCC 6.2.0][64 bit] 10bit
Encoding settings                        : cpuid=1173503 / frame-threads=2 / numa-pools=4 / wpp / no-pmode / no-pme / no-psnr / no-ssim / log-level=2 / input-csp=1 / input-res=1920x1080 / interlace=0 / total-frames=32995 / level-idc=0 / high-tier=1 / uhd-bd=0 / ref=4 / no-allow-non-conformance / no-repeat-headers / annexb / no-aud / no-hrd / info / hash=0 / no-temporal-layers / open-gop / min-keyint=23 / keyint=250 / bframes=4 / b-adapt=2 / b-pyramid / bframe-bias=0 / rc-lookahead=25 / lookahead-slices=4 / scenecut=40 / no-intra-refresh / ctu=64 / min-cu-size=8 / rect / no-amp / max-tu-size=32 / tu-inter-depth=1 / tu-intra-depth=1 / limit-tu=0 / rdoq-level=2 / signhide / no-tskip / nr-intra=0 / nr-inter=0 / no-constrained-intra / strong-intra-smoothing / max-merge=3 / limit-refs=3 / limit-modes / me=3 / subme=3 / merange=57 / temporal-mvp / weightp / no-weightb / no-analyze-src-pics / deblock=0:0 / sao / no-sao-non-deblock / rd=4 / no-early-skip / rskip / no-fast-intra / no-tskip-fast / no-cu-lossless / no-b-intra / rdpenalty=0 / psy-rd=2.00 / psy-rdoq=1.00 / no-rd-refine / analysis-mode=0 / no-lossless / cbqpoffs=0 / crqpoffs=0 / rc=crf / crf=19.0 / qcomp=0.60 / qpstep=4 / stats-write=0 / stats-read=0 / ipratio=1.40 / pbratio=1.30 / aq-mode=1 / aq-strength=1.00 / cutree / zone-count=0 / no-strict-cbr / qg-size=32 / no-rc-grain / qpmax=69 / qpmin=0 / sar=0 / overscan=0 / videoformat=5 / range=0 / colorprim=2 / transfer=2 / colormatrix=2 / chromaloc=0 / display-window=0 / max-cll=0,0 / min-luma=0 / max-luma=1023 / log2-max-poc-lsb=8 / vui-timing-info / vui-hrd-info / slices=1 / opt-qp-pps / opt-ref-list-length-pps / no-multi-pass-opt-rps / scenecut-bias=0.05
Default                                  : Yes
Forced                                   : No

Audio #1
ID                                       : 2
Format                                   : AAC
Format/Info                              : Advanced Audio Codec
Format profile                           : LC
Codec ID                                 : A_AAC
Duration                                 : 22 min 57 s
Bit rate                                 : 89.0 kb/s
Channel(s)                               : 2 channels
Channel positions                        : Front: L R
Sampling rate                            : 48.0 kHz
Frame rate                               : 46.875 FPS (1024 spf)
Compression mode                         : Lossy
Delay relative to video                  : 9 ms
Stream size                              : 14.6 MiB (2%)
Language                                 : English
Default                                  : No
Forced                                   : No

Audio #2
ID                                       : 3
Format                                   : AAC
Format/Info                              : Advanced Audio Codec
Format profile                           : LC
Codec ID                                 : A_AAC
Duration                                 : 22 min 57 s
Bit rate                                 : 88.8 kb/s
Channel(s)                               : 2 channels
Channel positions                        : Front: L R
Sampling rate                            : 48.0 kHz
Frame rate                               : 46.875 FPS (1024 spf)
Compression mode                         : Lossy
Delay relative to video                  : 9 ms
Stream size                              : 14.6 MiB (2%)
Language                                 : Japanese
Default                                  : No
Forced                                   : No

Text
ID                                       : 4
Format                                   : PGS
Muxing mode                              : zlib
Codec ID                                 : S_HDMV/PGS
Codec ID/Info                            : Picture based subtitle format used on BDs/HD-DVDs
Duration                                 : 22 min 47 s
Bit rate                                 : 8 445 b/s
Count of elements                        : 692
Stream size                              : 1.38 MiB (0%)
Language                                 : English
Default                                  : No
Forced                                   : No

Menu
00:00:00.000                             : en:(01)00:00:00:000
00:01:25.960                             : en:(02)00:01:25:960
00:10:46.062                             : en:(03)00:10:46:062
00:21:26.118                             : en:(04)00:21:26:118
00:22:36.104                             : en:(05)00:22:36:104

........................................................................


Loading...


Trackers:
udp://tracker.zer0day.to:1337/announce

[Prof] Death Note (1080p x265 HEVC 10bit AAC Dual Audio)
Files
1.mkv789.91 MB
10.mkv764.54 MB
11.mkv679.80 MB
12.mkv791.60 MB
13.mkv635.50 MB
14.mkv751.74 MB
15.mkv661.80 MB
16.mkv644.21 MB
17.mkv707.00 MB
18.mkv775.14 MB
19.mkv699.45 MB
2.mkv684.92 MB
20.mkv755.32 MB
21.mkv557.99 MB
22.mkv732.14 MB
23.mkv640.55 MB
24.mkv691.99 MB
25.mkv708.71 MB
26.mkv763.37 MB
27.mkv625.34 MB
28.mkv813.99 MB
29.mkv715.55 MB
3.mkv737.46 MB
30.mkv789.78 MB
31.mkv664.73 MB
32.mkv819.96 MB
33.mkv652.95 MB
34.mkv784.06 MB
35.mkv654.41 MB
36.mkv821.70 MB
37.mkv679.06 MB
4.mkv602.39 MB
5.mkv525.41 MB
6.mkv528.85 MB
7.mkv764.28 MB
8.mkv685.80 MB
9.mkv764.11 MB


Comments:
No comments still posted
Loading...
Powered by TT | Page Generated In 0.034729 secs.
| RSS Feed | Feed Info