Warning! Use a VPN When Downloading Torrents!
Your IP Address is .   Location is
Your Internet Provider is tracking your torrent activity!  Hide your IP ADDRESS with a VPN!
We strongly recommend using Trust.Zone VPN to anonymize your torrenting. It's FREE!
Get VPN Now for FREE!
First Cams

Xvid/x264



Non-English

Site Friends
      ETTV

      WorldWide Torrents

      Free Tutorials

      Aiosearch


Loading...

Lavender (2016).720p.H264.italian.english.Ac3-5.1.sub.spa.eng-MIRCrew


Download torrent:      
Info Hash:  64a5a5711b71d9582a13549b4e4f1e8bb68502fe
Category:  Movies  > HD
Torrent language:  English  
Seeds | Leech:  285 | 89
Complete:   1,670
Health:   
Total Size:  1.72 GB
Added By:        robbyrs
Date Added:  18-05-2019 06:45:pm | Last Edit:  19-05-2019 10:17:am

IMDB
Lavender
Lavender Released 03 Mar 2017

Genre Drama, Thriller

Director Ed Gass-Donnelly

Writer Colin Frizzell, Ed Gass-Donnelly

Actors Abbie Cornish, Dermot Mulroney, Justin Long, Lola Flanery

Plot After discovering old fractures in her skull, a photographer recovering from amnesia becomes increasingly haunted by a sinister childhood secret.

Link http://www.imdb.com/title/tt4680980

Last Updated 26-06-2019 23:59:10
5.3

Votes 4,496

Un système d'onglets en javascript
Description Trackers Files Comments Download
Lavender (2016).720p.H264.italian.english.Ac3-5.1.sub.spa.eng-MIRCrew


NO FOUND ONLY ORIGINAL RELEASE

My release is always in double track audio italian and Original audio
for select it use VLC or dvd player home
not use wmp

Lavender (2016)

Quality MIRCrew on HD 720p da  1,7 gb










GENERE: Thriller
ANNO: 2016
REGIA: Ed Gass-Donnelly
PAESE: Canada, USA



Abbie Cornish, Diego Klattenhoff, Dermot Mulroney, Justin Long



Una fotografa affetta da gravi perdite di memoria in seguito a un incidente. Strani indizi tra le sue foto inizieranno a suggerire che sia lei la responsabile della morte di quella famiglia che non aveva mai saputo di avere.



After discovering old fractures in her skull, a photographer recovering from amnesia becomes increasingly haunted by a sinister childhood secret.





General
Unique ID                                : 194882931023262953071209929815553058664 (0x929D165610F017088E1D11A1A029A768)
Complete name                            : Lavender (2016).720p.h264.ita.eng.sub.eng.spa-MIRCrew\Lavender (2016).720p.h264.ita.eng.sub.eng.spa-MIRCrew.mkv
Format                                   : Matroska
Format version                           : Version 2
File size                                : 1.72 GiB
Duration                                 : 1h 32mn
Overall bit rate                         : 2 655 Kbps
Movie name                               : MIRCrew
Encoded date                             : UTC 2019-05-05 18:56:11
Writing application                      : mkvmerge v5.8.0 ('No Sleep / Pillow') built on Sep  2 2012 15:37:04
Writing library                          : Lavf54.63.100
COMMENT                                  : mircrew-releases

Video
ID                                       : 1
Format                                   : AVC
Format/Info                              : Advanced Video Codec
Format profile                           : [email protected]
Format settings, CABAC                   : Yes
Format settings, ReFrames                : 2 frames
Codec ID                                 : V_MPEG4/ISO/AVC
Duration                                 : 1h 32mn
Bit rate                                 : 1 900 Kbps
Width                                    : 1 280 pixels
Height                                   : 528 pixels
Display aspect ratio                     : 2.40:1
Frame rate mode                          : Variable
Frame rate                               : 23.976 fps
Color space                              : YUV
Chroma subsampling                       : 4:2:0
Bit depth                                : 8 bits
Scan type                                : Progressive
Bits/(Pixel*Frame)                       : 0.117
Stream size                              : 1.19 GiB (69%)
Title                                    : MIRCrew
Writing library                          : x264 core 130 r2273
Encoding settings                        : cabac=1 / ref=2 / deblock=1:0:0 / analyse=0x1:0x131 / me=hex / subme=7 / psy=1 / psy_rd=1.00:0.00 / mixed_ref=0 / me_range=16 / chroma_me=1 / trellis=1 / 8x8dct=0 / cqm=0 / deadzone=21,11 / fast_pskip=1 / chroma_qp_offset=-2 / threads=9 / lookahead_threads=1 / sliced_threads=0 / nr=0 / decimate=1 / interlaced=0 / bluray_compat=0 / constrained_intra=0 / bframes=3 / b_pyramid=0 / b_adapt=1 / b_bias=0 / direct=3 / weightb=1 / open_gop=0 / weightp=2 / keyint=230 / keyint_min=23 / scenecut=40 / intra_refresh=0 / rc_lookahead=40 / rc=abr / mbtree=1 / bitrate=1900 / ratetol=1.0 / qcomp=0.60 / qpmin=10 / qpmax=69 / qpstep=4 / vbv_maxrate=24000 / vbv_bufsize=24000 / nal_hrd=none / ip_ratio=1.40 / aq=1:1.00
Language                                 : Italian
Default                                  : Yes
Forced                                   : No
DURATION                                 : 01:32:18.200000000
NUMBER_OF_FRAMES                         : 132784
NUMBER_OF_BYTES                          : 1491249884
_STATISTICS_WRITING_APP                  : mkvmerge v25.0.0 ('Prog Noir') 64-bit
_STATISTICS_WRITING_DATE_UTC             : 2019-05-05 18:56:11
_STATISTICS_TAGS                         : BPS DURATION NUMBER_OF_FRAMES NUMBER_OF_BYTES

Audio #1
ID                                       : 2
Format                                   : AC-3
Format/Info                              : Audio Coding 3
Mode extension                           : CM (complete main)
Codec ID                                 : A_AC3
Duration                                 : 1h 32mn
Bit rate mode                            : Constant
Bit rate                                 : 384 Kbps
Channel(s)                               : 6 channels
Channel positions                        : Front: L C R, Side: L R, LFE
Sampling rate                            : 48.0 KHz
Bit depth                                : 16 bits
Compression mode                         : Lossy
Delay relative to video                  : -5ms
Stream size                              : 254 MiB (14%)
Title                                    : Ita Ac3 5.1
Language                                 : Italian
Default                                  : Yes
Forced                                   : No
DURATION                                 : 01:32:37.920000000
NUMBER_OF_FRAMES                         : 173685
NUMBER_OF_BYTES                          : 266780160
_STATISTICS_WRITING_APP                  : mkvmerge v25.0.0 ('Prog Noir') 64-bit
_STATISTICS_WRITING_DATE_UTC             : 2019-05-05 18:56:11
_STATISTICS_TAGS                         : BPS DURATION NUMBER_OF_FRAMES NUMBER_OF_BYTES

Audio #2
ID                                       : 3
Format                                   : AC-3
Format/Info                              : Audio Coding 3
Mode extension                           : CM (complete main)
Codec ID                                 : A_AC3
Duration                                 : 1h 32mn
Bit rate mode                            : Constant
Bit rate                                 : 384 Kbps
Channel(s)                               : 2 channels
Channel positions                        : Front: L R
Sampling rate                            : 48.0 KHz
Bit depth                                : 16 bits
Compression mode                         : Lossy
Delay relative to video                  : -5ms
Stream size                              : 254 MiB (14%)
Title                                    : Eng Ac3
Language                                 : English
Default                                  : No
Forced                                   : No
DURATION                                 : 01:32:37.920000000
NUMBER_OF_FRAMES                         : 173685
NUMBER_OF_BYTES                          : 266780160
_STATISTICS_WRITING_APP                  : mkvmerge v25.0.0 ('Prog Noir') 64-bit
_STATISTICS_WRITING_DATE_UTC             : 2019-05-05 18:56:11
_STATISTICS_TAGS                         : BPS DURATION NUMBER_OF_FRAMES NUMBER_OF_BYTES







Similar Torrents
Type Name Size Added S L
x264 The.Challenge.S32E14.Final.Reckoning.Lavender.Is.t...
389.23 MB 2018-10-10 10:48:45 317 35
Audio [indie-rock, psychedelic rock] (2018) Lavender Flu...
206.81 MB 2018-08-05 21:22:54 47 8
HD Lavender (2016) Thriller HDip [OpenTsubasa]
815.11 MB 2019-05-21 17:05:41 1 1

Loading...


Trackers:
udp://tracker.coppersurfer.tk:6969/announce

Lavender (2016).720p.H264.italian.english.Ac3-5.1.sub.spa.eng-MIRCrew
Files
Lavender (2016).720p.h264.ita.eng.sub.ita.spa-MIRCrew.eng.srt (46.24 kB)
Lavender (2016).720p.h264.ita.eng.sub.ita.spa-MIRCrew.mkv (1.72 GB)
Lavender (2016).720p.h264.ita.eng.sub.ita.spa-MIRCrew.spa.srt (48.44 kB)


Comments:
No comments still posted
Loading...
Powered by TT | Page Generated In 1.538757 secs.
| RSS Feed | Feed Info