Warning! Use a VPN When Downloading Torrents!
Your IP Address is .   Location is
Your Internet Provider is tracking your torrent activity!  Hide your IP ADDRESS with a VPN!
We strongly recommend using Trust.Zone VPN to anonymize your torrenting. It's FREE!
Get VPN Now for FREE!
First Cams

Xvid/x264



Non-English

Site Friends
      ETTV

      WorldWide Torrents

      Free Tutorials

      Aiosearch


Loading...

Attraction - Prityazhenie (2017).1080p.H264.italian.rus.Ac3-5.1.sub.ita-MIRCrew


Download torrent:      
Info Hash:  4392fd18680023ebe1f415f9b27fe5e899b2c8e2
Category:  Movies  > HD
Torrent language:  English  
Seeds | Leech:  494 | 174
Complete:   2,657
Health:   
Total Size:  3.13 GB
Added By:        robbyrs
Date Added:  18-05-2019 03:49:pm | Last Edit:  19-05-2019 03:05:am

Un système d'onglets en javascript
Description Trackers Files Comments Download
Attraction - Prityazhenie (2017).1080p.H264.italian.rus.Ac3-5.1.sub.ita-MIRCrew


NO FOUND ONLY ORIGINAL RELEASE

My release is always in double track audio italian and Original audio
for select it use VLC or dvd player home
not use wmp

Attraction - Prityazhenie (2017)

Quality MIRCrew on HD 1080p da  3.1 gb










Original title:  Prityazhenie
Directed by Fyodor Bondarchuk
Produced by

  Fyodor Bondarchuk
  Dmitriy Rudovskiy
  Mikhail Vrubel
  Gabriel Klement
  Aleksandr Andryushchenko
  Anton Zlatopolskiy

Screenplay by
Andrey Zolotaryov
Oleg Malovichko
Music by Ivan Burlyaev
Cinematography Mikhail Khasaya
Production company Art Pictures Studio
Distributed by Columbia Pictures
Release date 26 January 2017 (Russia)
Running time  117 minutes
Country Russia



  Irina Starshenbaum
  Alexander Petrov
  Oleg Menshikov
  Rinal Mukhametov




Secondo i rapporti delle autorità, l'oggetto volante non identificato che si è schiantato a Mosca è presumibilmente di natura extraterrestre. La maggior parte della zona di Chertanovo è transennata e la polizia e l'esercito si recano sul luogo dell'incidente. I funzionari discutono sulla possibilità di un'evacuazione di emergenze mentre il ministero della difesa riunisce un comitato speciale a cui affidare il compito di stabilire un eventuale contatto con i visitatori ancora in vita.



After an alien ship crash lands onto a Russian city, many who saw it and the occupants start to question their own existence while there are those who demand the aliens leave Earth






General
Unique ID                                : 179228573105443411053808497737537580256 (0x86D62AE6BE2DC8478EB736E0B5366CE0)
Complete name                            : Attraction - Prityazhenie (2017).1080p.H264.Ita.Rus.sub.ita.MIRCrew.ita\Attraction - Prityazhenie (2017).1080p.H264.Ita.Rus.sub.ita.MIRCrew.mkv
Format                                   : Matroska
Format version                           : Version 2
File size                                : 3.13 GiB
Duration                                 : 1h 57mn
Overall bit rate                         : 3 823 Kbps
Movie name                               : MIRCrew
Encoded date                             : UTC 2019-05-17 18:10:07
Writing application                      : mkvmerge v5.8.0 ('No Sleep / Pillow') built on Sep  2 2012 15:37:04
Writing library                          : Lavf54.63.100
COMMENT                                  : mircrew-releases

Video
ID                                       : 1
Format                                   : AVC
Format/Info                              : Advanced Video Codec
Format profile                           : [email protected]
Format settings, CABAC                   : Yes
Format settings, ReFrames                : 2 frames
Codec ID                                 : V_MPEG4/ISO/AVC
Duration                                 : 1h 57mn
Bit rate                                 : 3 000 Kbps
Width                                    : 1 920 pixels
Height                                   : 800 pixels
Display aspect ratio                     : 2.40:1
Frame rate mode                          : Variable
Frame rate                               : 24.000 fps
Color space                              : YUV
Chroma subsampling                       : 4:2:0
Bit depth                                : 8 bits
Scan type                                : Progressive
Bits/(Pixel*Frame)                       : 0.081
Stream size                              : 2.39 GiB (76%)
Title                                    : MIRCrew
Writing library                          : x264 core 130 r2273
Encoding settings                        : cabac=1 / ref=2 / deblock=1:0:0 / analyse=0x1:0x131 / me=hex / subme=7 / psy=1 / psy_rd=1.00:0.00 / mixed_ref=0 / me_range=16 / chroma_me=1 / trellis=1 / 8x8dct=0 / cqm=0 / deadzone=21,11 / fast_pskip=1 / chroma_qp_offset=-2 / threads=6 / lookahead_threads=1 / sliced_threads=0 / nr=0 / decimate=1 / interlaced=0 / bluray_compat=0 / constrained_intra=0 / bframes=3 / b_pyramid=0 / b_adapt=1 / b_bias=0 / direct=3 / weightb=1 / open_gop=0 / weightp=2 / keyint=240 / keyint_min=24 / scenecut=40 / intra_refresh=0 / rc_lookahead=40 / rc=abr / mbtree=1 / bitrate=3000 / ratetol=1.0 / qcomp=0.60 / qpmin=10 / qpmax=69 / qpstep=4 / vbv_maxrate=24000 / vbv_bufsize=24000 / nal_hrd=none / ip_ratio=1.40 / aq=1:1.00
Language                                 : Italian
Default                                  : Yes
Forced                                   : No
DURATION                                 : 01:57:11.834000000
NUMBER_OF_FRAMES                         : 168764
NUMBER_OF_BYTES                          : 8907259302
_STATISTICS_WRITING_APP                  : mkvmerge v9.5.0 ('Quiet Fire') 64bit
_STATISTICS_WRITING_DATE_UTC             : 2019-05-12 08:32:49
_STATISTICS_TAGS                         : BPS DURATION NUMBER_OF_FRAMES NUMBER_OF_BYTES

Audio #1
ID                                       : 2
Format                                   : AC-3
Format/Info                              : Audio Coding 3
Mode extension                           : CM (complete main)
Codec ID                                 : A_AC3
Duration                                 : 1h 57mn
Bit rate mode                            : Constant
Bit rate                                 : 640 Kbps
Channel(s)                               : 6 channels
Channel positions                        : Front: L C R, Side: L R, LFE
Sampling rate                            : 48.0 KHz
Bit depth                                : 16 bits
Compression mode                         : Lossy
Delay relative to video                  : -42ms
Stream size                              : 536 MiB (17%)
Title                                    : Ita Ac3 5.1
Language                                 : Italian
Default                                  : Yes
Forced                                   : No

Audio #2
ID                                       : 3
Format                                   : AC-3
Format/Info                              : Audio Coding 3
Mode extension                           : CM (complete main)
Codec ID                                 : A_AC3
Duration                                 : 1h 57mn
Bit rate mode                            : Constant
Bit rate                                 : 192 Kbps
Channel(s)                               : 2 channels
Channel positions                        : Front: L R
Sampling rate                            : 48.0 KHz
Bit depth                                : 16 bits
Compression mode                         : Lossy
Delay relative to video                  : -42ms
Stream size                              : 161 MiB (5%)
Language                                 : cad
Default                                  : No
Forced                                   : No

Menu
00:00:00.000                             : :00:00:00.000
00:07:05.342                             : :00:07:05.342
00:14:28.201                             : :00:14:28.201
00:20:13.838                             : :00:20:13.838
00:29:27.099                             : :00:29:27.099
00:39:02.590                             : :00:39:02.590
00:50:56.804                             : :00:50:56.804
00:59:52.756                             : :00:59:52.756
01:08:53.129                             : :01:08:53.129
01:16:19.950                             : :01:16:19.950
01:25:27.706                             : :01:25:27.706
01:35:23.259                             : :01:35:23.259
01:45:16.300                             : :01:45:16:300
01:55:01.150                             : :01:55:01:150







Similar Torrents
Type Name Size Added S L
Divx/Xvid Attraction.2018.BDRip.XviD.AC3-EVO
1.47 GB 2018-12-04 21:43:31 7052 6702
Video BrazzersExxtra 19 01 16 Emily Addison Anonymous At...
273.55 MB 2019-01-16 07:40:55 4564 1562
HD Video HD TRE-094 customs Tower BEST erogenous full cours...
13.95 GB 2019-01-30 23:26:21 3007 2825
Divx/Xvid Abnormal.Attraction.2019.HDRip.XviD.AC3-EVO
1.42 GB 2019-02-26 12:56:30 1856 939
Video The vaunted S-Class model Gotham Sexy micro bikini...
728.01 MB 2019-05-04 07:45:34 1719 1765
HD Video Short hair, husky voice is the attraction of user ...
480.50 MB 2019-05-11 11:03:36 1537 2018
Video NubileFilms 18 12 07 Alina Lopez Laws Of Attractio...
166.03 MB 2018-12-07 10:22:30 1524 409
HD Video HD SDMM-013 from the cute to your boyfriend meet ...
5.44 GB 2019-04-12 15:25:20 1299 2976
HD Video Emily is finally uncensored lifting of the ban is...
341.07 MB 2019-03-12 08:59:33 1289 985
Video DarkX 19 02 07 Khloe Kapri Unexpected Attraction ...
336.25 MB 2019-02-07 09:07:25 1266 695

Loading...


Trackers:
udp://tracker.coppersurfer.tk:6969/announce

Attraction - Prityazhenie (2017).1080p.H264.italian.rus.Ac3-5.1.sub.ita-MIRCrew
Files
Attraction - Prityazhenie (2017).1080p.H264.Ita.Rus.sub.ita.MIRCrew.ita.srt (87.76 kB)
Attraction - Prityazhenie (2017).1080p.H264.Ita.Rus.sub.ita.MIRCrew.mkv (3.13 GB)


Comments:
No comments still posted
Loading...
Powered by TT | Page Generated In 0.218395 secs.
| RSS Feed | Feed Info