Warning! Use a VPN When Downloading Torrents!
Your IP Address is .   Location is
Your Internet Provider is tracking your torrent activity!  Hide your IP ADDRESS with a VPN!
We strongly recommend using Trust.Zone VPN to anonymize your torrenting. It's FREE!
Get VPN Now for FREE!
First Cams

Xvid/x264



Non-English

Site Friends
      ETTV

      WorldWide Torrents

      Free Tutorials

      Aiosearch


Loading...

Iron Sky 2012 COMPLETE 1080p Blu-ray x265 DTS-HD MA 5.1 D0ct0rLew[SEV]


Download torrent:      
Info Hash:  9b26bf86af5e4d98a31b30e35b67e8407b174977
Category:  Movies  > HEVC/x265
Torrent language:  English  
Seeds | Leech:  133 | 60
Complete:   281
Health:   
Total Size:  8.44 GB
Added By:        SEV
Date Added:  18-05-2019 02:52:am | Last Edit:  18-05-2019 05:34:pm

IMDB
Iron Sky
Iron Sky Released 04 Apr 2012

Genre Action, Comedy, Sci-Fi

Director Timo Vuorensola

Writer Jarmo Puskala (original concept), Johanna Sinisalo (based on a story by), Michael Kalesniko (screenplay by), Timo Vuorensola (screenplay by)

Actors Julia Dietze, Christopher Kirby, Götz Otto, Udo Kier

Plot The Nazis set up a secret base on the dark side of the moon in 1945 where they hide out and plan to return to power in 2018.

Link https://www.imdb.com/title/tt1034314/?ref_=fn_al_tt_1

Last Updated 16-06-2019 10:06:26
5.9

Votes 87,580

Un système d'onglets en javascript
Description Trackers Files Comments Download


Screenshots
Source


Encode


Media Information

Unique ID                                : 82113265166101585650253932130651394227 (0x3DC6708B088919712E5A8E836110D0B3)
Complete name                            : Iron Sky 2012 COMPLETE 1080p Blu-ray x265 DTS-HD MA 5.1 D0ct0rLew[SEV]\Iron Sky 2012 1080p Blu-ray x265 DTS-HD MA 5.1 D0ct0rLew[SEV].mkv
Format                                   : Matroska
Format version                           : Version 4
File size                                : 6.17 GiB
Duration                                 : 1 h 28 min
Overall bit rate mode                    : Variable
Overall bit rate                         : 9 944 kb/s
Movie name                               : Iron Sky
Encoded date                             : UTC 2019-05-17 16:39:27
Writing application                      : mkvmerge v29.0.0 ('Like It Or Not') 64-bit
Writing library                          : libebml v1.3.6 + libmatroska v1.4.9

Video
ID                                       : 2
Format                                   : HEVC
Format/Info                              : High Efficiency Video Coding
Format profile                           : Main [email protected]@Main
Codec ID                                 : V_MPEGH/ISO/HEVC
Duration                                 : 1 h 28 min
Bit rate                                 : 7 670 kb/s
Width                                    : 1 920 pixels
Height                                   : 1 080 pixels
Display aspect ratio                     : 16:9
Frame rate mode                          : Constant
Frame rate                               : 25.000 FPS
Color space                              : YUV
Chroma subsampling                       : 4:2:0
Bit depth                                : 10 bits
Bits/(Pixel*Frame)                       : 0.148
Stream size                              : 4.76 GiB (77%)
Writing library                          : x265 2.8+69-856f056d392e:[Windows][MSVC 1915][64 bit] 10bit
Encoding settings                        : cpuid=1111039 / frame-threads=3 / numa-pools=8 / wpp / no-pmode / no-pme / no-psnr / no-ssim / log-level=2 / input-csp=1 / input-res=1920x1080 / interlace=0 / total-frames=133331 / level-idc=0 / high-tier=1 / uhd-bd=0 / ref=4 / no-allow-non-conformance / no-repeat-headers / annexb / no-aud / no-hrd / info / hash=0 / no-temporal-layers / open-gop / min-keyint=25 / keyint=250 / gop-lookahead=0 / bframes=8 / b-adapt=2 / b-pyramid / bframe-bias=0 / rc-lookahead=90 / lookahead-slices=4 / scenecut=40 / radl=0 / no-intra-refresh / ctu=64 / min-cu-size=8 / no-rect / no-amp / max-tu-size=32 / tu-inter-depth=2 / tu-intra-depth=2 / limit-tu=4 / rdoq-level=2 / dynamic-rd=0.00 / no-ssim-rd / signhide / no-tskip / nr-intra=0 / nr-inter=0 / no-constrained-intra / no-strong-intra-smoothing / max-merge=3 / limit-refs=2 / limit-modes / me=3 / subme=5 / merange=92 / temporal-mvp / weightp / weightb / no-analyze-src-pics / deblock=0:0 / sao / no-sao-non-deblock / rd=6 / no-early-skip / rskip / no-fast-intra / no-tskip-fast / no-cu-lossless / b-intra / no-splitrd-skip / rdpenalty=0 / psy-rd=1.20 / psy-rdoq=1.00 / no-rd-refine / no-lossless / cbqpoffs=0 / crqpoffs=0 / rc=crf / crf=17.0 / qcomp=0.60 / qpstep=4 / stats-write=0 / stats-read=0 / ipratio=1.40 / pbratio=1.30 / aq-mode=3 / aq-strength=1.00 / cutree / zone-count=0 / no-strict-cbr / qg-size=32 / no-rc-grain / qpmax=69 / qpmin=0 / no-const-vbv / sar=0 / overscan=0 / videoformat=5 / range=0 / colorprim=2 / transfer=2 / colormatrix=2 / chromaloc=0 / display-window=0 / max-cll=0,0 / min-luma=0 / max-luma=1023 / log2-max-poc-lsb=8 / vui-timing-info / vui-hrd-info / slices=1 / no-opt-qp-pps / no-opt-ref-list-length-pps / no-multi-pass-opt-rps / scenecut-bias=0.05 / no-opt-cu-delta-qp / no-aq-motion / no-hdr / no-hdr-opt / no-dhdr10-opt / no-idr-recovery-sei / analysis-reuse-level=5 / scale-factor=0 / refine-intra=0 / refine-inter=0 / refine-mv=0 / no-limit-sao / ctu-info=0 / no-lowpass-dct / refine-mv-type=0 / copy-pic=1 / max-ausize-factor=1.0 / no-dynamic-refine / no-single-sei
Default                                  : Yes
Forced                                   : No

Audio #1
ID                                       : 3
Format                                   : DTS XLL
Format/Info                              : Digital Theater Systems
Commercial name                          : DTS-HD Master Audio
Codec ID                                 : A_DTS
Duration                                 : 1 h 28 min
Bit rate mode                            : Variable
Bit rate                                 : 2 142 kb/s
Channel(s)                               : 6 channels
Channel layout                           : C L R Ls Rs LFE
Sampling rate                            : 48.0 kHz
Frame rate                               : 93.750 FPS (512 SPF)
Bit depth                                : 16 bits
Compression mode                         : Lossless
Stream size                              : 1.33 GiB (22%)
Title                                    : Surround 5.1
Language                                 : English
Default                                  : Yes
Forced                                   : No

Audio #2
ID                                       : 4
Format                                   : AAC LC
Format/Info                              : Advanced Audio Codec Low Complexity
Codec ID                                 : A_AAC-2
Duration                                 : 1 h 28 min
Bit rate                                 : 128 kb/s
Channel(s)                               : 2 channels
Channel layout                           : L R
Sampling rate                            : 48.0 kHz
Frame rate                               : 46.875 FPS (1024 SPF)
Compression mode                         : Lossy
Delay relative to video                  : 9 ms
Stream size                              : 81.4 MiB (1%)
Title                                    : Commentary by Producer Samuli Torssonen and Director Timo Vuorensola
Language                                 : English
Default                                  : No
Forced                                   : No

Text
ID                                       : 1
Format                                   : UTF-8
Codec ID                                 : S_TEXT/UTF8
Codec ID/Info                            : UTF-8 Plain Text
Duration                                 : 1 h 25 min
Bit rate                                 : 40 b/s
Count of elements                        : 752
Stream size                              : 25.6 KiB (0%)
Language                                 : English
Default                                  : Yes
Forced                                   : No

Menu
00:00:00.000                             : en:Chapter 01
00:04:42.760                             : en:Chapter 02
00:09:32.080                             : en:Chapter 03
00:14:47.400                             : en:Chapter 04
00:19:38.080                             : en:Chapter 05
00:24:56.520                             : en:Chapter 06
00:30:09.920                             : en:Chapter 07
00:35:35.960                             : en:Chapter 08
00:40:19.800                             : en:Chapter 09
00:45:13.520                             : en:Chapter 10
00:50:44.040                             : en:Chapter 11
00:56:03.920                             : en:Chapter 12
01:00:27.360                             : en:Chapter 13
01:05:49.640                             : en:Chapter 14
01:10:30.360                             : en:Chapter 15
01:15:56.680                             : en:Chapter 16
01:20:52.600                             : en:Chapter 17

Source Media Information

Unique ID                                : 239347239305552199717055825389416703617 (0xB41099FDC58AC5532518CC048B156681)
Complete name                            : Iron.Sky.2012.Theatrical.1080i.AUS.BluRay.AVC.DTS-HD.MA.5.1-HDBEE\Iron Sky_t00.mkv
Format                                   : Matroska
Format version                           : Version 2
File size                                : 15.0 GiB
Duration                                 : 1 h 28 min
Overall bit rate mode                    : Variable
Overall bit rate                         : 24.2 Mb/s
Movie name                               : Iron Sky
Encoded date                             : UTC 2019-05-15 22:59:54
Writing application                      : MakeMKV v1.14.3 win(x64-release)
Writing library                          : libmakemkv v1.14.3 (1.3.5/1.4.7) win(x64-release)

Video
ID                                       : 1
ID in the original source medium         : 4113 (0x1011)
Format                                   : AVC
Format/Info                              : Advanced Video Codec
Format profile                           : [email protected]
Format settings                          : CABAC / 4 Ref Frames
Format settings, CABAC                   : Yes
Format settings, RefFrames               : 4 frames
Format settings, picture structure       : Frame
Codec ID                                 : V_MPEG4/ISO/AVC
Duration                                 : 1 h 28 min
Bit rate mode                            : Variable
Bit rate                                 : 22.0 Mb/s
Maximum bit rate                         : 36.0 Mb/s
Width                                    : 1 920 pixels
Height                                   : 1 080 pixels
Display aspect ratio                     : 16:9
Frame rate mode                          : Constant
Frame rate                               : 25.000 FPS
Color space                              : YUV
Chroma subsampling                       : 4:2:0
Bit depth                                : 8 bits
Scan type                                : Interlaced
Scan type, store method                  : Interleaved fields
Scan order                               : Top Field First
Bits/(Pixel*Frame)                       : 0.424
Stream size                              : 13.7 GiB (91%)
Language                                 : English
Default                                  : No
Forced                                   : No
Color range                              : Limited
Color primaries                          : BT.709
Transfer characteristics                 : BT.709
Matrix coefficients                      : BT.709
Original source medium                   : Blu-ray

Audio
ID                                       : 2
ID in the original source medium         : 4352 (0x1100)
Format                                   : DTS XLL
Format/Info                              : Digital Theater Systems
Commercial name                          : DTS-HD Master Audio
Codec ID                                 : A_DTS
Duration                                 : 1 h 28 min
Bit rate mode                            : Variable
Bit rate                                 : 2 142 kb/s
Channel(s)                               : 6 channels
Channel layout                           : C L R Ls Rs LFE
Sampling rate                            : 48.0 kHz
Frame rate                               : 93.750 FPS (512 SPF)
Bit depth                                : 16 bits
Compression mode                         : Lossless
Stream size                              : 1.33 GiB (9%)
Title                                    : Surround 5.1
Language                                 : English
Default                                  : Yes
Forced                                   : No
Original source medium                   : Blu-ray

Text
ID                                       : 3
ID in the original source medium         : 4608 (0x1200)
Format                                   : PGS
Codec ID                                 : S_HDMV/PGS
Codec ID/Info                            : Picture based subtitle format used on BDs/HD-DVDs
Duration                                 : 1 h 25 min
Bit rate                                 : 32.5 kb/s
Count of elements                        : 1486
Stream size                              : 19.8 MiB (0%)
Language                                 : English
Default                                  : No
Forced                                   : No
Original source medium                   : Blu-ray

Menu
00:00:00.000                             : en:Chapter 01
00:04:42.760                             : en:Chapter 02
00:09:32.080                             : en:Chapter 03
00:14:47.400                             : en:Chapter 04
00:19:38.080                             : en:Chapter 05
00:24:56.520                             : en:Chapter 06
00:30:09.920                             : en:Chapter 07
00:35:35.960                             : en:Chapter 08
00:40:19.800                             : en:Chapter 09
00:45:13.520                             : en:Chapter 10
00:50:44.040                             : en:Chapter 11
00:56:03.920                             : en:Chapter 12
01:00:27.360                             : en:Chapter 13
01:05:49.640                             : en:Chapter 14
01:10:30.360                             : en:Chapter 15
01:15:56.680                             : en:Chapter 16
01:20:52.600                             : en:Chapter 17

We have no issue with individuals posting or re-uploading our torrents on a platform we aren't on. However, if this is something you'd like to do, please do so in a 'as-is' format. We ask that you do not create a new torrent, include all descriptions you see above including the SEV logo, tags, notes and screenshots. If you'd like to become a permanent poster on a website we don't post to, feel free to get in contact with a Sublime Encoded Video  member.


We are recruiting/training new members for SEV & seedbox providers as well as people to help out with subtitles.
As you already know, we deliver quality, so you know the standard.
If you're interested, feel free to contact any of the team members.


Similar Torrents
Type Name Size Added S L
Divx/Xvid Iron Sky The Coming Race.2019.HDRip.XviD.AC3-EVO
1.35 GB 2019-05-06 12:41:59 1769 1280
HD Iron.Sky.The.Coming.Race.2019.1080p.WEB-DL.DD5.1.H...
3.19 GB 2019-05-06 01:46:35 804 528
Divx/Xvid Iron Sky The Coming Race.2019.BRRip.XviD.AC3-EVO
1.35 GB 2019-05-10 06:25:47 751 697
h.264/x264 Iron.Sky.The.Coming.Race.2019.HDRip.AC3.X264-CMRG[...
1.33 GB 2019-05-06 01:48:13 551 156
HEVC/x265 Iron Sky The Coming Race 2019 1080p Blu-ray x265 ...
8.14 GB 2019-06-01 20:37:57 237 343
h.264/x264 Iron.Sky.The.Coming.Race.2019.LiMiTED.720p.BluRay....
4.43 GB 2019-05-10 00:05:41 139 73
h.264/x264 iron.sky.the.coming.race.2019.BRRip.AC3.x264-CMRG[...
1.18 GB 2019-05-10 00:23:11 125 42
h.264/x264 Iron.Sky.The.Coming.Race.2019.LiMiTED.BDRip.x264-C...
668.89 MB 2019-05-10 00:08:08 90 40
h.264/x264 Iron Sky The Coming Race.2019.BRRip.XviD.AC3-EVO[E...
1.35 GB 2019-05-10 00:11:17 77 55
h.264/x264 Iron Sky The Coming Race.2019.HDRip.XviD.AC3-EVO[E...
1.35 GB 2019-05-06 01:39:51 31 88

Loading...


Trackers:
http://tracker3.itzmx.com:6961/announce

This Torrent also has backup trackers
URLSeedersLeechersCompleted
http://tracker3.itzmx.com:6961/announce000
http://open.acgnxtracker.com:80/announce000
http://explodie.org:6969/announce000
http://0d.kebhana.mx:443/announce000

Iron Sky 2012 COMPLETE 1080p Blu-ray x265 DTS-HD MA 5.1 D0ct0rLew[SEV]
Files
Extras/Behind the Scenes 1080p BDrip AAC2.0 D0ct0rLew[SEV].mkv (816.99 MB)
Extras/Iron Sky Teasers 1080p BDrip AAC2.0 D0ct0rLew[SEV].mkv (429.58 MB)
Extras/Making of Iron Sky 1080p BDrip AAC2.0 D0ct0rLew[SEV].mkv (829.35 MB)
Extras/Theatrical Trailer 1080p BDrip AAC2.0 D0ct0rLew[SEV].mkv (248.81 MB)
Iron Sky 2012 1080p Blu-ray x265 DTS-HD MA 5.1 D0ct0rLew[SEV].mkv (6.17 GB)


Comments:
No comments still posted
Loading...
Powered by TT | Page Generated In 0.835892 secs.
| RSS Feed | Feed Info