Warning! Use a VPN When Downloading Torrents!
Your IP Address is .   Location is
Your Internet Provider is tracking your torrent activity!  Hide your IP ADDRESS with a VPN!
We strongly recommend using ExpressVPN to anonymize your torrenting. 30 Day Money Back Guarantee!
Try it Now!
First Cams

Xvid/x264



Non-English

Site Friends
      ETTV

      WorldWide Torrents

      Free Tutorials

      Aiosearch


Loading...

DC's Legends of Tomorrow S04E15 Terms of Service 1080p AMZN WEBRip x265 DDP 5.1 D0ct0rLew[SEV]


Download torrent:    
Info Hash:  efeaadf3f94181ada192353f74c4dc34a0ac9aa7
Category:  TV  > HEVC/x265
Torrent language:  English  
Seeds | Leech:  475 | 104
Complete:   1,676
Health:   
Total Size:  1.45 GB
Added By:        SEV
Date Added:  15-05-2019 04:49:pm | Last Edit:  16-05-2019 09:40:am

IMDB
DC's Legends of Tomorrow
DC's Legends of Tomorrow Released 21 Jan 2016

Genre Action, Adventure, Drama, Sci-Fi

Director N/A

Writer Greg Berlanti, Marc Guggenheim, Phil Klemmer, Andrew Kreisberg

Actors Brandon Routh, Caity Lotz, Amy Louise Pemberton, Dominic Purcell

Plot Time-travelling rogue Rip Hunter has to recruit a rag-tag team of heroes and villains to help prevent an apocalypse that could impact not only Earth, but all of time.

Link https://www.imdb.com/title/tt4532368/?ref_=fn_al_tt_1

Last Updated 27-05-2019 02:13:47
6.9

Votes 80,035

Un système d'onglets en javascript
Description Trackers Files Comments Download




Media Information

Unique ID                                : 126104357705081104532690526897808450813 (0x5EDED0DC583F1A7132F490CE7989A4FD)
Complete name                            : DC's Legends of Tomorrow S04E15 Terms of Service 1080p AMZN WEBRip x265 DDP 5.1 D0ct0rLew[SEV].mkv
Format                                   : Matroska
Format version                           : Version 4
File size                                : 1.45 GiB
Duration                                 : 41 min 30 s
Overall bit rate                         : 5 003 kb/s
Encoded date                             : UTC 2019-05-15 10:30:06
Writing application                      : mkvmerge v33.1.0 ('Primrose') 64-bit
Writing library                          : libebml v1.3.7 + libmatroska v1.5.0

Video
ID                                       : 1
Format                                   : HEVC
Format/Info                              : High Efficiency Video Coding
Format profile                           : Main [email protected]@Main
Codec ID                                 : V_MPEGH/ISO/HEVC
Duration                                 : 41 min 30 s
Bit rate                                 : 4 361 kb/s
Width                                    : 1 920 pixels
Height                                   : 1 080 pixels
Display aspect ratio                     : 16:9
Frame rate mode                          : Constant
Frame rate                               : 23.976 (24000/1001) FPS
Color space                              : YUV
Chroma subsampling                       : 4:2:0
Bit depth                                : 10 bits
Bits/(Pixel*Frame)                       : 0.088
Stream size                              : 1.26 GiB (87%)
Writing library                          : x265 3.0_Au+21-bac0e1acb874:[Windows][MSVC 1920][64 bit] 10bit
Encoding settings                        : cpuid=1111039 / frame-threads=4 / numa-pools=16 / wpp / no-pmode / no-pme / no-psnr / no-ssim / log-level=2 / input-csp=1 / input-res=1920x1080 / interlace=0 / total-frames=59708 / level-idc=0 / high-tier=1 / uhd-bd=0 / ref=4 / no-allow-non-conformance / no-repeat-headers / annexb / no-aud / no-hrd / info / hash=0 / no-temporal-layers / open-gop / min-keyint=23 / keyint=250 / gop-lookahead=0 / bframes=8 / b-adapt=2 / b-pyramid / bframe-bias=0 / rc-lookahead=90 / lookahead-slices=4 / scenecut=40 / radl=0 / no-splice / no-intra-refresh / ctu=64 / min-cu-size=8 / rect / amp / max-tu-size=32 / tu-inter-depth=2 / tu-intra-depth=2 / limit-tu=0 / rdoq-level=2 / dynamic-rd=0.00 / no-ssim-rd / signhide / no-tskip / nr-intra=0 / nr-inter=0 / no-constrained-intra / no-strong-intra-smoothing / max-merge=3 / limit-refs=3 / limit-modes / me=3 / subme=7 / merange=92 / temporal-mvp / weightp / no-weightb / no-analyze-src-pics / deblock=3:3 / sao / no-sao-non-deblock / rd=4 / no-early-skip / rskip / no-fast-intra / no-tskip-fast / no-cu-lossless / no-b-intra / no-splitrd-skip / rdpenalty=0 / psy-rd=1.00 / psy-rdoq=1.00 / no-rd-refine / no-lossless / cbqpoffs=0 / crqpoffs=0 / rc=crf / crf=19.6 / qcomp=0.60 / qpstep=4 / stats-write=0 / stats-read=0 / ipratio=1.40 / pbratio=1.30 / aq-mode=2 / aq-strength=1.00 / cutree / zone-count=0 / no-strict-cbr / qg-size=32 / no-rc-grain / qpmax=69 / qpmin=0 / no-const-vbv / sar=0 / overscan=0 / videoformat=5 / range=0 / colorprim=2 / transfer=2 / colormatrix=2 / chromaloc=0 / display-window=0 / max-cll=0,0 / min-luma=0 / max-luma=1023 / log2-max-poc-lsb=8 / vui-timing-info / vui-hrd-info / slices=1 / no-opt-qp-pps / no-opt-ref-list-length-pps / no-multi-pass-opt-rps / scenecut-bias=0.05 / no-opt-cu-delta-qp / no-aq-motion / no-hdr / no-hdr-opt / no-dhdr10-opt / no-idr-recovery-sei / analysis-reuse-level=5 / scale-factor=0 / refine-intra=0 / refine-inter=0 / refine-mv=0 / refine-ctu-distortion=0 / no-limit-sao / ctu-info=0 / no-lowpass-dct / refine-analysis-type=0 / copy-pic=1 / max-ausize-factor=1.0 / no-dynamic-refine / no-single-sei / no-hevc-aq / no-svt / qp-adaptation-range=1.00
Language                                 : English
Default                                  : Yes
Forced                                   : No

Audio
ID                                       : 2
Format                                   : E-AC-3
Format/Info                              : Enhanced AC-3
Commercial name                          : Dolby Digital Plus
Codec ID                                 : A_EAC3
Duration                                 : 41 min 30 s
Bit rate mode                            : Constant
Bit rate                                 : 640 kb/s
Channel(s)                               : 6 channels
Channel layout                           : L R C LFE Ls Rs
Sampling rate                            : 48.0 kHz
Frame rate                               : 31.250 FPS (1536 SPF)
Compression mode                         : Lossy
Stream size                              : 190 MiB (13%)
Language                                 : English
Service kind                             : Complete Main
Default                                  : Yes
Forced                                   : No

Text
ID                                       : 3
Format                                   : UTF-8
Codec ID                                 : S_TEXT/UTF8
Codec ID/Info                            : UTF-8 Plain Text
Duration                                 : 41 min 22 s
Bit rate                                 : 87 b/s
Count of elements                        : 866
Stream size                              : 26.4 KiB (0%)
Language                                 : English
Default                                  : Yes
Forced                                   : No

We have no issue with individuals posting or re-uploading our torrents on a platform we aren't on. However, if this is something you'd like to do, please do so in a 'as-is' format. We ask that you do not create a new torrent, include all descriptions you see above including the SEV logo, tags, notes and screenshots.
If you'd like to become a permanent poster on a website we don't post to, feel free to get in contact with a Sublime Encoded Video member.

We are recruiting/training new members for SEV & seedbox providers as well as people to help out with subtitles.
As you already know, we deliver quality, so you know the standard.
If you're interested, feel free to contact any of the team members.


Similar Torrents
Type Name Size Added S L
HEVC/x265 DC's Legends of Tomorrow S04E16 Hey World 1080p AM...
1.67 GB 2019-05-22 16:04:26 527 166
HEVC/x265 DC's Legends of Tomorrow S04E13 Egg MacGuffin 1080...
1.64 GB 2019-05-02 06:11:59 332 94
HEVC/x265 DC's Legends of Tomorrow S04E09 Lucha de Apuestas ...
1.09 GB 2019-04-03 16:36:41 266 89
HEVC/x265 DC's Legends of Tomorrow S04E10 The Getaway 1080p ...
1.51 GB 2019-04-11 21:03:26 210 114
Packs DC's Legends of Tomorrow Season 4 Complete 720p HD...
10.08 GB 2019-05-24 12:03:48 209 302
HEVC/x265 DC's Legends of Tomorrow S04E14 Nip Stuck 1080p AM...
1.52 GB 2019-05-09 15:04:43 193 95
HEVC/x265 DC's Legends of Tomorrow S04E11 Séance and Sensib...
1.40 GB 2019-04-18 08:27:07 179 198
HEVC/x265 DC's Legends of Tomorrow S04E12 The Eggplant the W...
1.41 GB 2019-04-25 01:47:02 148 106

Loading...


Trackers:
http://tracker3.itzmx.com:6961/announce

This Torrent also has backup trackers
URLSeedersLeechersCompleted
http://tracker3.itzmx.com:6961/announce000
http://open.acgnxtracker.com:80/announce000
http://explodie.org:6969/announce000
http://0d.kebhana.mx:443/announce000

DC's Legends of Tomorrow S04E15 Terms of Service 1080p AMZN WEBRip x265 DDP 5.1 D0ct0rLew[SEV]
Files
DC's Legends of Tomorrow S04E15 Terms of Service 1080p AMZN WEBRip x265 DDP 5.1 D0ct0rLew[SEV].mkv (1.45 GB)


Comments:
No comments still posted
Loading...
Powered by TT | Page Generated In 0.392239 secs.
| RSS Feed | Feed Info