Warning! Use a VPN When Downloading Torrents!
Your IP Address is .   Location is
Your Internet Provider is tracking your torrent activity!  Hide your IP ADDRESS with a VPN!
We strongly recommend using ExpressVPN to anonymize your torrenting. 30 Day Money Back Guarantee!
Try it Now!
First Cams

Xvid/x264



Non-English

Site Friends
      ETTV

      WorldWide Torrents

      Free Tutorials

      Aiosearch


Loading...

Star Wars Revelations (2005) 480p 5.1 - 2.0 x264 Phun Psyz


Download torrent:    
Info Hash:  a2241b6a70232ca03be3406ce67cc7373b938081
Category:  Movies  > h.264/x264
Torrent language:  English  
Seeds | Leech:  276 | 50
Complete:   1,077
Health:   
Total Size:  400.22 MB
Added By:        phunpsyz
Date Added:  25-04-2019 06:16:am | Last Edit:  26-04-2019 08:14:am

IMDB
Star Wars: Revelations
Star Wars: Revelations Released N/A

Genre Action, Adventure, Sci-Fi

Director Shane Felux

Writer Dawn Cowings, Sarah Yaworsky

Actors Gina Hernandez, Karen Hammang, Holland Gedney, Frank Hernandez

Plot The last Jedi fight to survive when they are hunted by the Empire. Taking place between Episodes III and Episode IV.

Link http://www.imdb.com/title/tt0457489

Last Updated 25-05-2019 19:10:01
5.2

Votes 1,112

Un système d'onglets en javascript
Description Trackers Files Comments Download
www.imdb.com/title/tt0457489/

The last Jedi fight to survive when they are hunted by the Empire. Taking place between Episodes III and Episode IV.

Source: ???







Format                      : MPEG-4
Format profile              : Base Media / Version 2
Codec ID                    : mp42 (isom/iso2/avc1/mp41)
File size                   : 400 MiB
Duration                    : 47 min 4 s
Overall bit rate            : 1 189 kb/s
Writing application         : HandBrake 1.2.0 2018121700

Video
ID                          : 1
Format                      : AVC
Format/Info                 : Advanced Video Codec
Format profile              : [email protected]
Format settings             : CABAC / 1 Ref Frames
Format settings, CABAC      : Yes
Format settings, ReFrames   : 1 frame
Codec ID                    : avc1
Codec ID/Info               : Advanced Video Coding
Duration                    : 47 min 4 s
Bit rate                    : 701 kb/s
Width                       : 720 pixels
Height                      : 480 pixels
Display aspect ratio        : 3:2
Frame rate mode             : Constant
Frame rate                  : 29.970 (30000/1001) FPS
Standard                    : NTSC
Color space                 : YUV
Chroma subsampling          : 4:2:0
Bit depth                   : 8 bits
Scan type                   : Progressive
Bits/(Pixel*Frame)          : 0.068
Stream size                 : 236 MiB (59%)
Writing library             : x264 core 157 r2935 545de2f

Audio #1
ID                          : 2
Format                      : AC-3
Format/Info                 : Audio Coding 3
Commercial name             : Dolby Digital
Codec ID                    : ac-3
Duration                    : 47 min 4 s
Bit rate mode               : Constant
Bit rate                    : 320 kb/s
Channel(s)                  : 6 channels
Channel layout              : L R C LFE Ls Rs
Sampling rate               : 48.0 kHz
Frame rate                  : 31.250 FPS (1536 SPF)
Bit depth                   : 16 bits
Compression mode            : Lossy
Stream size                 : 108 MiB (27%)
Title                       : Surround
Language                    : English

Audio #2
ID                          : 3
Format                      : AAC LC
Format/Info                 : Advanced Audio Codec Low Complexity
Codec ID                    : mp4a-40-2
Duration                    : 47 min 4 s
Bit rate mode               : Constant
Bit rate                    : 161 kb/s
Channel(s)                  : 2 channels
Channel layout              : L R
Sampling rate               : 48.0 kHz
Frame rate                  : 46.875 FPS (1024 SPF)
Compression mode            : Lossy
Stream size                 : 54.1 MiB (14%)
Title                       : Stereo
Language                    : English


Similar Torrents
Type Name Size Added S L
Divx/Xvid Solo.A.Star.Wars.Story.2018.BRRip.XviD.AC3-EVO
1.54 GB 2018-09-09 18:43:23 59453 14867
HD Solo A Star Wars Story 2018 720p BluRay x264 ESub ...
1.23 GB 2018-09-10 08:51:35 10371 2423
Cam/TS Solo.A Star Wars Story.2018.PROPER.720p.HDCAM.ENG....
2.46 GB 2018-05-24 15:30:24 9253 8441
Cam/TS Solo A Star Wars Story 2018 NEW 720p HD-TS X264-CP...
2.85 GB 2018-05-30 15:00:11 8085 3031
h.264/x264 Solo A Star Wars Story 2018 BluRay 1080p-H264-AC3-...
2.31 GB 2018-09-10 10:44:00 5164 819
Divx/Xvid Solo.A.Star.Wars.Story.2018.BRRip.XViD.AC3-ETRG
1.51 GB 2018-09-09 22:12:30 3928 1567
HD Solo: A Star Wars Story (2018).720p.H264.italian.e...
2.73 GB 2018-09-17 15:38:07 1910 754
HD Solo A Star Wars Story 2018 1080p BluRay AC3 5.1 x...
3.44 GB 2018-09-11 13:33:35 1597 2762
h.264/x264 Solo.A.Star.Wars.Story.2018.BRRip.AC3.X264-CMRG[Et...
1.75 GB 2018-09-09 19:32:48 1238 228
HD Solo.A.Star.Wars.Story.2018.BluRay.1080p.x264.DTS-...
17.92 GB 2018-09-11 02:51:43 1233 2432

Loading...


Trackers:
udp://tracker.opentrackr.org:1337/announce

This Torrent also has backup trackers
URLSeedersLeechersCompleted
http://explodie.org:6969/announce000
http://open.acgtracker.com:1096/announce000

Star Wars Revelations (2005) 480p 5.1 - 2.0 x264 Phun Psyz
Files
Star Wars Revelations (2005) 480p 5.1 - 2.0 x264 Phun Psyz.mp4 (400.22 MB)


Comments:
No comments still posted
Loading...
Powered by TT | Page Generated In 0.849352 secs.
| RSS Feed | Feed Info