Warning! Use a VPN When Downloading Torrents!
Your IP Address is .   Location is
Your Internet Provider is tracking your torrent activity!  Hide your IP ADDRESS with a VPN!
We strongly recommend using ExpressVPN to anonymize your torrenting. 30 Day Money Back Guarantee!
Try it Now!
First Cams

Xvid/x264



Non-English

Site Friends
      ETTV

      WorldWide Torrents

      Free Tutorials

      Aiosearch


Loading...

Replicas (2018).720p.H264.italian.english.Ac3-5.1.sub.ita.eng-MIRCrew


Download torrent:    
Info Hash:  9cb9a1279f5020880eaab4418869927618620936
Category:  Movies  > HD
Torrent language:  English  
Seeds | Leech:  1,404 | 673
Complete:   7,598
Health:   
Total Size:  1.96 GB
Added By:        robbyrs
Date Added:  24-04-2019 06:52:pm | Last Edit:  25-04-2019 05:32:pm

IMDB
Replicas
Replicas Released 11 Jan 2019

Genre Drama, Sci-Fi, Thriller

Director Jeffrey Nachmanoff

Writer Chad St. John (screenplay by), Stephen Hamel (story by)

Actors Keanu Reeves, Alice Eve, Thomas Middleditch, John Ortiz

Plot A scientist becomes obsessed with bringing back his family members who died in a traffic accident.

Link http://www.imdb.com/title/tt4154916

Last Updated 25-05-2019 18:00:19
5.4

Votes 15,884

Un système d'onglets en javascript
Description Trackers Files Comments Download
Replicas (2018).720p.H264.italian.english.Ac3-5.1.sub.ita.eng-MIRCrew


NO FOUND ONLY ORIGINAL RELEASE

My release is always in double track audio italian and Original audio
for select it use VLC or dvd player home
not use wmp

Replicas (2018)

Quality MIRCrew on HD 720p da  2,0 gb









GENERE: Fantascienza, Thriller
ANNO: 2018
REGIA: Jeffrey Nachmanoff
PAESE: USA
SCENEGGIATURA: Chad St. John
FOTOGRAFIA: Checco Varese
MONTAGGIO: Pedro Javier Muñiz
MUSICHE: Mark Kilian, Jose Ojeda



Keanu Reeves, Alice Eve, Thomas Middleditch, Emily Alyn Lind, John Ortiz, Emjay Anthony



Con una storia drammatica dai risvolti inaspettati, Replicas riscrive le leggi di Asimov e della robotica fondendo insieme gli slanci della mente umana con gli iperrealistici fantocci robotici.



A scientist becomes obsessed with bringing back his family members who died in a traffic accident.  





General
Unique ID                                : 165408385017474520847315017226916587501 (0x7C707F0560619E924404FF647F59E7ED)
Complete name                            : Replicas (2018).720p.ita.eng.sub.ita.eng-MIRCrew\Replicas (2018).720p.ita.eng.sub.ita.eng-MIRCrew.mkv
Format                                   : Matroska
Format version                           : Version 2
File size                                : 1.96 GiB
Duration                                 : 1h 47mn
Overall bit rate                         : 2 600 Kbps
Movie name                               : MIRCrew
Encoded date                             : UTC 2019-04-21 09:42:48
Writing application                      : Lavf54.63.100
Writing library                          : Lavf54.63.100
COMMENT                                  : mircrew-releases

Video
ID                                       : 1
Format                                   : AVC
Format/Info                              : Advanced Video Codec
Format profile                           : [email protected]
Format settings, CABAC                   : Yes
Format settings, ReFrames                : 2 frames
Codec ID                                 : V_MPEG4/ISO/AVC
Duration                                 : 1h 47mn
Bit rate                                 : 1 780 Kbps
Nominal bit rate                         : 1 900 Kbps
Width                                    : 1 280 pixels
Height                                   : 544 pixels
Display aspect ratio                     : 2.40:1
Original display aspect ratio            : 2.40:1
Frame rate mode                          : Variable
Frame rate                               : 23.976 fps
Color space                              : YUV
Chroma subsampling                       : 4:2:0
Bit depth                                : 8 bits
Scan type                                : Progressive
Bits/(Pixel*Frame)                       : 0.107
Stream size                              : 1.34 GiB (68%)
Writing library                          : x264 core 130 r2273
Encoding settings                        : cabac=1 / ref=2 / deblock=1:0:0 / analyse=0x1:0x131 / me=hex / subme=7 / psy=1 / psy_rd=1.00:0.00 / mixed_ref=0 / me_range=16 / chroma_me=1 / trellis=1 / 8x8dct=0 / cqm=0 / deadzone=21,11 / fast_pskip=1 / chroma_qp_offset=-2 / threads=9 / lookahead_threads=1 / sliced_threads=0 / nr=0 / decimate=1 / interlaced=0 / bluray_compat=0 / constrained_intra=0 / bframes=3 / b_pyramid=0 / b_adapt=1 / b_bias=0 / direct=3 / weightb=1 / open_gop=0 / weightp=2 / keyint=230 / keyint_min=23 / scenecut=40 / intra_refresh=0 / rc_lookahead=40 / rc=abr / mbtree=1 / bitrate=1900 / ratetol=1.0 / qcomp=0.60 / qpmin=10 / qpmax=69 / qpstep=4 / vbv_maxrate=24000 / vbv_bufsize=24000 / nal_hrd=none / ip_ratio=1.40 / aq=1:1.00
Language                                 : Italian
Default                                  : Yes
Forced                                   : No

Audio #1
ID                                       : 2
Format                                   : AC-3
Format/Info                              : Audio Coding 3
Mode extension                           : CM (complete main)
Codec ID                                 : A_AC3
Duration                                 : 1h 47mn
Bit rate mode                            : Constant
Bit rate                                 : 384 Kbps
Channel(s)                               : 6 channels
Channel positions                        : Front: L C R, Side: L R, LFE
Sampling rate                            : 48.0 KHz
Bit depth                                : 16 bits
Compression mode                         : Lossy
Delay relative to video                  : 1mn 5s
Stream size                              : 297 MiB (15%)
Title                                    : Ita Ac3 5.1
Language                                 : Italian
Default                                  : Yes
Forced                                   : Yes

Audio #2
ID                                       : 3
Format                                   : AC-3
Format/Info                              : Audio Coding 3
Mode extension                           : CM (complete main)
Codec ID                                 : A_AC3
Duration                                 : 1h 47mn
Bit rate mode                            : Constant
Bit rate                                 : 384 Kbps
Channel(s)                               : 6 channels
Channel positions                        : Front: L C R, Side: L R, LFE
Sampling rate                            : 48.0 KHz
Bit depth                                : 16 bits
Compression mode                         : Lossy
Delay relative to video                  : 1mn 5s
Stream size                              : 297 MiB (15%)
Title                                    : Eng Ac3 5.1
Language                                 : English
Default                                  : No
Forced                                   : No






Similar Torrents
Type Name Size Added S L
h.264/x264 Replicas.2018.HDRip.XviD.AC3-EVO[EtMovies]
1.31 GB 2018-12-22 20:40:10 6307 1503
HD Replicas.2018.WEB-DL.1080P.X264.AAC.CHS MOVCR
2.01 GB 2018-12-22 19:31:11 3443 751
Divx/Xvid Replicas.2018.V2.HDRip.XviD.AC3-EVO
1.34 GB 2019-01-25 15:10:53 2587 1296
Divx/Xvid Replicas.2018.HC.HDRip.XViD.AC3-ETRG
1.22 GB 2018-12-22 22:35:07 1784 887
h.264/x264 Replicas.2018.720p.HDRip.X264.AC3-EVO[EtHD]
2.29 GB 2018-12-23 17:37:11 968 463
Cam/TS Replicas 2018 720p HDCAM ENG-1XBET
2.45 GB 2018-10-30 11:28:07 818 410
h.264/x264 Replicas.2018.HDRip.HC.AC3.X264-CMRG[EtMovies]
1.24 GB 2018-12-22 20:45:50 787 223
Divx/Xvid Replicas.2018.BDRip.XviD.AC3-EVO
1.26 GB 2019-03-12 09:38:44 733 537
Cam/TS Replicas 2018.HDCAM.XViD.AC3-ETRG
1.18 GB 2018-10-31 11:11:17 640 245
h.264/x264 Replicas.2018.1080p.HC.HDRip.X264.AC3-EVO[EtHD]
2.62 GB 2018-12-23 21:08:06 623 355

Loading...


Trackers:
udp://tracker.coppersurfer.tk:6969/announce

Replicas (2018).720p.H264.italian.english.Ac3-5.1.sub.ita.eng-MIRCrew
Files
Replicas (2018).720p.ita.eng.sub.ita.eng-MIRCrew.eng.srt (71.69 kB)
Replicas (2018).720p.ita.eng.sub.ita.eng-MIRCrew.ita.srt (73.40 kB)
Replicas (2018).720p.ita.eng.sub.ita.eng-MIRCrew.mkv (1.96 GB)
Replicas (2018).720p.ita.eng.sub.ita.eng-MIRCrew.srt (3.17 kB)


Comments:

<< Previous      Next >>
1 - 1

[Report] Posted: 24-04-2019 at 23:26:43
shazam



thanks

1 - 1
<< Previous      Next >>

Loading...
Powered by TT | Page Generated In 1.019886 secs.
| RSS Feed | Feed Info