Warning! Use a VPN When Downloading Torrents!
Your IP Address is .   Location is
Your Internet Provider is tracking your torrent activity!  Hide your IP ADDRESS with a VPN!
We strongly recommend using ExpressVPN to anonymize your torrenting. 30 Day Money Back Guarantee!
Try it Now!
First Cams

Xvid/x264



Non-English

Site Friends
      ETTV

      WorldWide Torrents

      Free Tutorials

      Aiosearch


Loading...

Kis Kisko Pyaar Karoon (2015) Hindi - 720p WEB-DL - x264 - DD 5.1 - ESubs -Sun George


Download torrent:    
Info Hash:  a08887489ddb5e4773b25935e450890e345b1db5
Category:  Movies  > HD
Torrent language:  Hindi  
Seeds | Leech:  379 | 458
Complete:   321
Health:   
Total Size:  1.78 GB
Added By:        sungeorge
Date Added:  24-04-2019 03:14:pm | Last Edit:  25-04-2019 12:17:pm

IMDB
Kis Kisko Pyaar Karoon
Kis Kisko Pyaar Karoon Released 25 Sep 2015

Genre Comedy

Director Abbas Alibhai Burmawalla, Mastan Alibhai Burmawalla

Writer Anukalp Goswami (story), Kis Kisko Pyaar Karoon, Sonu Sinha (cowriter), Anukalp Goswami (screenplay and dialogue), Dheeraj Sarna (screenplay and dialogue)

Actors Kapil Sharma, Simran Kaur Mundi, Manjari Fadnnis, Sai Lokur

Plot A man (Kapil Sharma) falls in love with four women, but how will he keep them from finding out about each other?

Link http://www.imdb.com/title/tt4302956

Last Updated 25-05-2019 18:00:50
5.7

Votes 5,125

Un système d'onglets en javascript
Description Trackers Files Comments Download
Kis Kisko Pyaar Karoon (2015) Hindi - 720p WEB-DL - x264 - DD  5.1 - ESubs -Sun George





https://www.imdb.com/title/tt4302956/






===================================================================

Source : DTOne (Thanks)

General
Format                                   : Matroska
Format version                           : Version 4
File size                                : 1.77 GiB
Duration                                 : 2 h 12 min
Overall bit rate                         : 1 913 kb/s
Movie name : Kis Kisko Pyaar Karoon (2015) Hindi - 720p WEB-DL - x264 - DD  5.1 - ESubs -Sun George

===================================================================

Video
ID                                       : 1
Format                                   : AVC
Format/Info                              : Advanced Video Codec
Format profile                           : [email protected]
Format settings                          : CABAC / 5 Ref Frames
Format settings, CABAC                   : Yes
Format settings, RefFrames               : 5 frames
Codec ID                                 : V_MPEG4/ISO/AVC
Duration                                 : 2 h 12 min
Bit rate                                 : 1 500 kb/s
Width                                    : 1 280 pixels
Height                                   : 720 pixels
Display aspect ratio                     : 16:9
Frame rate mode                          : Constant
Frame rate                               : 24.000 FPS
Color space                              : YUV
Chroma subsampling                       : 4:2:0
Bit depth                                : 8 bits
Scan type                                : Progressive
Bits/(Pixel*Frame)                       : 0.068
Stream size                              : 1.41 GiB (80%)
Title                                    : Sun George

===================================================================

Audio
ID                                       : 2
Format                                   : AC-3
Format/Info                              : Audio Coding 3
Commercial name                          : Dolby Digital
Codec ID                                 : A_AC3
Duration                                 : 2 h 12 min
Bit rate mode                            : Constant
Bit rate                                 : 384 kb/s
Channel(s)                               : 6 channels
Channel layout                           : L R C LFE Ls Rs
Sampling rate                            : 48.0 kHz
Frame rate                               : 31.250 FPS (1536 SPF)
Bit depth                                : 16 bits
Compression mode                         : Lossy
Stream size                              : 364 MiB (20%)
Title                                    : Sun George
Language                                 : Hindi
Service kind                             : Complete Main
Default                                  : Yes
Forced                                   : No

Text
ID                                       : 3
Format                                   : UTF-8
Codec ID                                 : S_TEXT/UTF8
Codec ID/Info                            : UTF-8 Plain Text
Duration                                 : 2 h 10 min
Bit rate                                 : 91 b/s
Count of elements                        : 2086
Stream size                              : 87.2 KiB (0%)
Title                                    : Sun George
Language                                 : English
Default                                  : Yes
Forced                                   : Yes




















My Profile on other Sites:



https://1337x.to/user/Sungeorge/


https://www.ettv.tv/user/sungeorge


https://torrentgalaxy.org/profile/sungeorge


https://hon3yhd.net/account-details.php?id=17451


http://katcr.to/user/sungeorge/


https://movcr.tv/user/sungeorge


https://bwt.pw/account-details.php?id=118


Similar Torrents
Type Name Size Added S L
h.264/x264 Kis.Kisko.Pyaar.Karoon.2015.1080p.WEB-DL.H264.AAC-...
3.30 GB 2018-11-28 11:45:18 19 2

Loading...


Trackers:
udp://tracker.pirateparty.gr:6969/announce

This Torrent also has backup trackers
URLSeedersLeechersCompleted
http://tracker.torrentyorg.pl:80/announce000
https://tracker.fastdownload.xyz:443/announce000
http://vps02.net.orel.ru:80/announce000

Kis Kisko Pyaar Karoon (2015) Hindi - 720p WEB-DL - x264 - DD 5.1 - ESubs -Sun George
Files
Kis Kisko Pyaar Karoon (2015) Hindi - 720p WEB-DL - x264 - DD 5.1 - ESubs -Sun George.mkv (1.77 GB)
My Profiles.txt (406.00 B)
Sample Kis Kisko Pyaar Karoon (2015) Hindi - 720p WEB-DL - x264 - DD 5.1 - ESubs -Sun George.mkv (14.67 MB)


Comments:

<< Previous      Next >>
1 - 1

[Report] Posted: 24-04-2019 at 23:30:33
shazam



thanks

1 - 1
<< Previous      Next >>

Loading...
Powered by TT | Page Generated In 0.373507 secs.
| RSS Feed | Feed Info