[Login] or [Signup]

First Cams

Xvid/x264



Non-English

Loading...

[Prof] Kamisama Kiss S2 (1080p x265 HEVC 10bit AAC 5.1 Eng Dub)


Complete Name :[Prof] Kamisama Kiss S2 (1080p x265 HEVC 10bit AAC 5.1 Eng Dub)
Download torrent:    [Prof] Kamisama Kiss S2 (1080p x265 HEVC 10bit AAC 5.1 Eng Dub).torrent
Info Hash:f4a75891a8fe0ca6694c63a078fd6ad671c7448d
Category:Anime  > All
Torrent language:English  
Seeds | Leech:6 | 7
Complete: 115
Health:
Total Size:4.56 GB
Downloaded:12 Times
Added By:      Prof
Date Added:06-07-2018 08:41:am | Last Edit:  13-09-2018 04:52:pm

 

Main Technical Comments
Format                                   : Matroska
Format version                           : Version 4 / Version 2
File size                                : 402 MiB
Duration                                 : 23 min 57 s
Overall bit rate                         : 2 348 kb/s
Movie name                               : Kamisama_Kiss_S2_D1
Encoded date                             : UTC 2018-07-02 07:19:54
Writing application                      : mkvmerge v9.6.0 ('Slave To Your Mind') 64bit
Writing library                          : libebml v1.3.4 + libmatroska v1.4.5

Video
ID                                       : 1
Format                                   : HEVC
Format/Info                              : High Efficiency Video Coding
Format profile                           : Main [email protected]@Main
Codec ID                                 : V_MPEGH/ISO/HEVC
Duration                                 : 23 min 57 s
Bit rate                                 : 2 096 kb/s
Width                                    : 1 920 pixels
Height                                   : 1 080 pixels
Display aspect ratio                     : 16:9
Frame rate mode                          : Constant
Frame rate                               : 23.976 (24000/1001) FPS
Color space                              : YUV
Chroma subsampling                       : 4:2:0
Bit depth                                : 10 bits
Bits/(Pixel*Frame)                       : 0.042
Stream size                              : 359 MiB (89%)
Writing library                          : x265 2.1+69-c97c64ab8b8e:[Windows][GCC 6.2.0][64 bit] 10bit
Encoding settings                        : cpuid=1173503 / frame-threads=2 / numa-pools=4 / wpp / no-pmode / no-pme / no-psnr / no-ssim / log-level=2 / input-csp=1 / input-res=1920x1080 / interlace=0 / total-frames=34457 / level-idc=0 / high-tier=1 / uhd-bd=0 / ref=4 / no-allow-non-conformance / no-repeat-headers / annexb / no-aud / no-hrd / info / hash=0 / no-temporal-layers / open-gop / min-keyint=23 / keyint=250 / bframes=4 / b-adapt=2 / b-pyramid / bframe-bias=0 / rc-lookahead=25 / lookahead-slices=4 / scenecut=40 / no-intra-refresh / ctu=64 / min-cu-size=8 / rect / no-amp / max-tu-size=32 / tu-inter-depth=1 / tu-intra-depth=1 / limit-tu=0 / rdoq-level=2 / signhide / no-tskip / nr-intra=0 / nr-inter=0 / no-constrained-intra / strong-intra-smoothing / max-merge=3 / limit-refs=3 / limit-modes / me=3 / subme=3 / merange=57 / temporal-mvp / weightp / no-weightb / no-analyze-src-pics / deblock=0:0 / sao / no-sao-non-deblock / rd=4 / no-early-skip / rskip / no-fast-intra / no-tskip-fast / no-cu-lossless / no-b-intra / rdpenalty=0 / psy-rd=2.00 / psy-rdoq=1.00 / no-rd-refine / analysis-mode=0 / no-lossless / cbqpoffs=0 / crqpoffs=0 / rc=crf / crf=19.0 / qcomp=0.60 / qpstep=4 / stats-write=0 / stats-read=0 / ipratio=1.40 / pbratio=1.30 / aq-mode=1 / aq-strength=1.00 / cutree / zone-count=0 / no-strict-cbr / qg-size=32 / no-rc-grain / qpmax=69 / qpmin=0 / sar=0 / overscan=0 / videoformat=5 / range=0 / colorprim=2 / transfer=2 / colormatrix=2 / chromaloc=0 / display-window=0 / max-cll=0,0 / min-luma=0 / max-luma=1023 / log2-max-poc-lsb=8 / vui-timing-info / vui-hrd-info / slices=1 / opt-qp-pps / opt-ref-list-length-pps / no-multi-pass-opt-rps / scenecut-bias=0.05
Default                                  : Yes
Forced                                   : No

Audio
ID                                       : 2
Format                                   : AAC
Format/Info                              : Advanced Audio Codec
Format profile                           : LC
Codec ID                                 : A_AAC
Duration                                 : 23 min 57 s
Bit rate                                 : 230 kb/s
Channel(s)                               : 6 channels
Channel positions                        : Front: L C R, Side: L R, LFE
Sampling rate                            : 48.0 kHz
Frame rate                               : 46.875 FPS (1024 spf)
Compression mode                         : Lossy
Delay relative to video                  : 9 ms
Stream size                              : 39.3 MiB (10%)
Language                                 : English
Default                                  : No
Forced                                   : No

Text #1
ID                                       : 3
Format                                   : PGS
Muxing mode                              : zlib
Codec ID                                 : S_HDMV/PGS
Codec ID/Info                            : Picture based subtitle format used on BDs/HD-DVDs
Duration                                 : 23 min 52 s
Bit rate                                 : 16.6 kb/s
Count of elements                        : 897
Stream size                              : 2.84 MiB (1%)
Language                                 : English
Default                                  : No
Forced                                   : No

Text #2
ID                                       : 4
Format                                   : PGS
Muxing mode                              : zlib
Codec ID                                 : S_HDMV/PGS
Codec ID/Info                            : Picture based subtitle format used on BDs/HD-DVDs
Duration                                 : 22 min 54 s
Bit rate                                 : 3 204 b/s
Count of elements                        : 147
Stream size                              : 538 KiB (0%)
Language                                 : English
Default                                  : No
Forced                                   : No

Menu
00:00:00.000                             : en:Chapter 01
00:01:38.098                             : en:Chapter 02
00:03:08.021                             : en:Chapter 03
00:12:42.094                             : en:Chapter 04
00:22:28.430                             : en:Chapter 05
00:23:41.128                             : en:Chapter 06


........................................................................


Loading...


Trackers:
udp://tracker.zer0day.to:1337/announce

[Prof] Kamisama Kiss S2 (1080p x265 HEVC 10bit AAC 5.1 Eng Dub)
Files
1.mkv402.29 MB
10.mkv356.71 MB
11.mkv318.56 MB
12.mkv307.74 MB
2.mkv380.28 MB
3.mkv712.95 MB
4.mkv333.78 MB
5.mkv348.97 MB
6.mkv413.66 MB
7.mkv419.38 MB
8.mkv333.95 MB
9.mkv341.80 MB


Similar Torrents
Type Name Size Added S L
All [Prof] Kamisama Kiss S1 (1080p x265 HEVC 10bit AAC...
4.00 GB 2018-07-02 09:21:56 10 0

Comments:
No comments still posted
Loading...
Powered by TT | Page Generated In 0.041629 secs.
| RSS Feed | Feed Info