[Login] or [Signup]


Warning! Use a VPN When Downloading Torrents!
Your IP Address is .   Location is
Your Internet Provider is tracking your torrent activity!  Hide your IP ADDRESS with a VPN!
We strongly recommend using ExpressVPN to anonymize your torrenting. 30 Day Money Back Guarantee!
Try it Now!
First Cams

Xvid/x264



Non-English

Site Friends
      ETTV

      WorldWide Torrents

      Free Tutorials

      Aiosearch


Loading...

Shazam! (2019) 720p Hindi Dubbed (Cleaned) HDTS x264 Mp3 by Full4movies


Download torrent:    
Info Hash:  5ecf07ba9a1201e67da724c9c852907850f60ea8
Category:  Movies  > HD
Torrent language:  Hindi  
Seeds | Leech:  147 | 122
Complete:   290
Health:   
Total Size:  815.30 MB
Added By:        full4movies
Date Added:  15-04-2019 03:23:pm | Last Edit:  16-04-2019 01:42:am

Un système d'onglets en javascript
Description Trackers Files Comments Download



General
Complete name                  : Shazam! (2019) 720p Hindi Dubbed (Cleaned) HDTS x264 Mp3 by Full4movies.mkv
Format                         : Matroska
Format version                 : Version 4 / Version 2
File size                      : 815 MiB
Duration                       : 2 h 0 min
Overall bit rate mode          : Variable
Overall bit rate               : 949 kb/s
Encoded date                   : UTC 2019-04-15 09:31:10
Writing application            : mkvmerge v6.9.1 ('Blue Panther') 32bit built on Apr 18 2014 18:15:44
Writing library                : libebml v1.3.0 + libmatroska v1.4.1

Video
ID                             : 1
Format                         : AVC
Format/Info                    : Advanced Video Codec
Format profile                 : [email protected]
Format settings, CABAC         : Yes
Format settings, RefFrames     : 4 frames
Codec ID                       : V_MPEG4/ISO/AVC
Duration                       : 2 h 0 min
Bit rate                       : 846 kb/s
Width                          : 1 280 pixels
Height                         : 536 pixels
Display aspect ratio           : 2.40:1
Frame rate mode                : Constant
Frame rate                     : 29.970 (30000/1001) FPS
Color space                    : YUV
Chroma subsampling             : 4:2:0
Bit depth                      : 8 bits
Scan type                      : Progressive
Bits/(Pixel*Frame)             : 0.041
Stream size                    : 717 MiB (88%)
Writing library                : x264 core 157 r2935 545de2f
Language                       : English
Default                        : Yes
Forced                         : No

Audio
ID                             : 2
Format                         : MPEG Audio
Format version                 : Version 1
Format profile                 : Layer 3
Mode                           : Joint stereo
Mode extension                 : MS Stereo
Codec ID                       : A_MPEG/L3
Codec ID/Hint                  : MP3
Duration                       : 2 h 4 min
Bit rate mode                  : Variable
Bit rate                       : 96.0 kb/s
Channel(s)                     : 2 channels
Sampling rate                  : 48.0 kHz
Compression mode               : Lossy
Stream size                    : 85.3 MiB (10%)
Writing library                : LAME3.99r
Encoding settings              : -m j -V 4 -q 3 -lowpass 15.1 --abr 96
Language                       : Hindi
Default                        : Yes
Forced                         : No



Screen shoot


Similar Torrents
Type Name Size Added S L
Dubs/Dual Audio Shazam! (2019) HDCAM 720p [Hindi + English] Dual-A...
1.16 GB 2019-04-05 17:32:14 3708 6552
Cam/TS Shazam! 2019 no advertisement WaTcHeRs
2.43 GB 2019-04-05 21:26:18 2537 2025
Cam/TS Shazam! 2019 HDCAM x264 AC3-ETRG
1.01 GB 2019-04-06 13:06:22 2021 2156
Non-English Shazam! (2019)[English - 720p HDCAMRip - x264 - 95...
955.40 MB 2019-04-05 19:06:51 981 815
HD Shazam! (2019) 720p English HDTS x264 Mp3 by Full4...
815.57 MB 2019-04-15 14:12:15 894 490
Cam/TS Shazam! (2019) HDCAM 720p ENGLISH x264 1XBET - Kat...
2.44 GB 2019-04-05 17:22:39 517 345
h.264/x264 Shazam! (2019)[English - HDCAMRip - x264 - 400MB]
421.91 MB 2019-04-05 19:07:11 354 440
Dubs/Dual Audio Shazam! 2019 Hindi 720p HD CAM Rip CineVood
1.07 GB 2019-04-06 13:26:30 240 173
HD Shazam! (2019) 720p Hindi Dubbed (Cleaned) HDCAM x...
773.35 MB 2019-04-08 12:04:35 123 46

Loading...


Trackers:
udp://tracker.coppersurfer.tk:6969/announce

Shazam! (2019) 720p Hindi Dubbed (Cleaned) HDTS x264 Mp3 by Full4movies
Files
Shazam! (2019) 720p Hindi Dubbed (Cleaned) HDTS x264 Mp3 by Full4movies.mkv (815.30 MB)


Comments:
No comments still posted
Loading...
Powered by TT | Page Generated In 0.119937 secs.
| RSS Feed | Feed Info