[Login] or [Signup]


Warning! Use a VPN When Downloading Torrents!
Your IP Address is .   Location is
Your Internet Provider is tracking your torrent activity!  Hide your IP ADDRESS with a VPN!
We strongly recommend using ExpressVPN to anonymize your torrenting. 30 Day Money Back Guarantee!
Try it Now!
First Cams

Xvid/x264



Non-English

Site Friends
      ETTV

      WorldWide Torrents

      Free Tutorials

      Aiosearch


Loading...

Sharmaji Ki Lag Gai (2019) Hindi Pre-DVDRip x264 Mp3 by Full4movies


Download torrent:    
Info Hash:  4879edee8bf28dceaa93de1d765cdf104aa8b612
Category:  Movies  > HD
Torrent language:  Hindi  
Seeds | Leech:  205 | 25
Complete:   266
Health:   
Total Size:  724.82 MB
Added By:        full4movies
Date Added:  15-04-2019 03:02:pm | Last Edit:  16-04-2019 01:44:am

Un système d'onglets en javascript
Description Trackers Files Comments Download



General
Complete name                  : Sharmaji Ki Lag Gai (2019) Hindi Pre-DVDRip x264 Mp3 by Full4movies.mkv
Format                         : Matroska
Format version                 : Version 4 / Version 2
File size                      : 725 MiB
Duration                       : 1 h 57 min
Overall bit rate               : 863 kb/s
Encoded date                   : UTC 2019-04-15 09:29:42
Writing application            : mkvmerge v6.9.1 ('Blue Panther') 32bit built on Apr 18 2014 18:15:44
Writing library                : libebml v1.3.0 + libmatroska v1.4.1

Video
ID                             : 1
Format                         : AVC
Format/Info                    : Advanced Video Codec
Format profile                 : [email protected]
Format settings, CABAC         : Yes
Format settings, RefFrames     : 4 frames
Codec ID                       : V_MPEG4/ISO/AVC
Duration                       : 1 h 57 min
Bit rate                       : 760 kb/s
Width                          : 720 pixels
Height                         : 304 pixels
Display aspect ratio           : 2.35:1
Frame rate mode                : Constant
Frame rate                     : 25.000 FPS
Color space                    : YUV
Chroma subsampling             : 4:2:0
Bit depth                      : 8 bits
Scan type                      : Progressive
Bits/(Pixel*Frame)             : 0.139
Stream size                    : 630 MiB (87%)
Writing library                : x264 core 155 r2901 7d0ff22
Default                        : Yes
Forced                         : No
Color range                    : Limited
Color primaries                : BT.601 PAL
Transfer characteristics       : BT.709
Matrix coefficients            : BT.601

Audio
ID                             : 2
Format                         : MPEG Audio
Format version                 : Version 1
Format profile                 : Layer 3
Mode                           : Joint stereo
Mode extension                 : MS Stereo
Codec ID                       : A_MPEG/L3
Codec ID/Hint                  : MP3
Duration                       : 1 h 57 min
Bit rate mode                  : Constant
Bit rate                       : 96.0 kb/s
Channel(s)                     : 2 channels
Sampling rate                  : 48.0 kHz
Compression mode               : Lossy
Delay relative to video        : -23 ms
Stream size                    : 80.6 MiB (11%)
Language                       : Hindi
Default                        : Yes
Forced                         : No

Screen shoot


Loading...


Trackers:
udp://tracker.coppersurfer.tk:6969/announce

Sharmaji Ki Lag Gai (2019) Hindi Pre-DVDRip x264 Mp3 by Full4movies
Files
Sharmaji Ki Lag Gai (2019) Hindi Pre-DVDRip x264 Mp3 by Full4movies.mkv (724.82 MB)


Comments:
No comments still posted
Loading...
Powered by TT | Page Generated In 0.115835 secs.
| RSS Feed | Feed Info