[Login] or [Signup]


Warning! Use a VPN When Downloading Torrents!
Your IP Address is .   Location is
Your Internet Provider is tracking your torrent activity!  Hide your IP ADDRESS with a VPN!
We strongly recommend using ExpressVPN to anonymize your torrenting. 30 Day Money Back Guarantee!
Try it Now!
First Cams

Xvid/x264



Non-English

Site Friends
      ETTV

      WorldWide Torrents

      Free Tutorials

      Aiosearch


Loading...

Notebook (2019) 720p Hindi Pre-DVDRip x264 Mp3 by Full4movies


Download torrent:    
Info Hash:  c294c35057b20172a1be2bb24a6e728220d3e075
Category:  Movies  > Cam/TS
Torrent language:  Hindi  
Seeds | Leech:  87 | 41
Complete:   94
Health:   
Total Size:  1.37 GB
Added By:        full4movies
Date Added:  15-04-2019 02:32:pm | Last Edit:  16-04-2019 12:38:am

IMDB
Notebook
Notebook Released 29 Mar 2019

Genre N/A

Director Nitin Kakkar

Writer N/A

Actors Zaheer Iqbal, Pranutan Bahl, Muazzam Bhat

Plot An ex-army officer, Kabir, becomes a teacher in Kashmir in a school that is in a miserable condition. Things take a turn when Kabir finds a notebook, left behind by the previous year's teacher Firdaus (Pranutan Bahl).

Link http://www.imdb.com/title/tt9105014

Last Updated 23-04-2019 21:21:10

Un système d'onglets en javascript
Description Trackers Files Comments Download



General
Complete name                  : Notebook (2019) 720p Hindi Pre-DVDRip x264 Mp3 by Full4movies.mkv
Format                         : Matroska
Format version                 : Version 4 / Version 2
File size                      : 1.37 GiB
Duration                       : 1 h 45 min
Overall bit rate               : 1 847 kb/s
Encoded date                   : UTC 2019-04-15 09:26:18
Writing application            : mkvmerge v6.9.1 ('Blue Panther') 32bit built on Apr 18 2014 18:15:44
Writing library                : libebml v1.3.0 + libmatroska v1.4.1

Video
ID                             : 1
Format                         : AVC
Format/Info                    : Advanced Video Codec
Format profile                 : [email protected]
Format settings, CABAC         : Yes
Format settings, RefFrames     : 4 frames
Codec ID                       : V_MPEG4/ISO/AVC
Duration                       : 1 h 45 min
Bit rate                       : 1 718 kb/s
Width                          : 1 280 pixels
Height                         : 544 pixels
Display aspect ratio           : 2.35:1
Frame rate mode                : Constant
Frame rate                     : 25.000 FPS
Color space                    : YUV
Chroma subsampling             : 4:2:0
Bit depth                      : 8 bits
Scan type                      : Progressive
Bits/(Pixel*Frame)             : 0.099
Stream size                    : 1.24 GiB (91%)
Writing library                : x264 core 155 r2901 7d0ff22
Default                        : Yes
Forced                         : No
Color range                    : Limited
Color primaries                : BT.601 PAL
Transfer characteristics       : BT.709
Matrix coefficients            : BT.601

Audio
ID                             : 2
Format                         : MPEG Audio
Format version                 : Version 1
Format profile                 : Layer 3
Mode                           : Joint stereo
Codec ID                       : A_MPEG/L3
Codec ID/Hint                  : MP3
Duration                       : 1 h 45 min
Bit rate mode                  : Constant
Bit rate                       : 128 kb/s
Channel(s)                     : 2 channels
Sampling rate                  : 48.0 kHz
Compression mode               : Lossy
Delay relative to video        : -23 ms
Stream size                    : 97.0 MiB (7%)
Default                        : Yes
Forced                         : No


Screen shoot



Similar Torrents
Type Name Size Added S L
Non-English Notebook 2019 Hindi 720p Pre DVD Rip x264 AAC 1.2G...
1.17 GB 2019-04-12 18:38:56 1592 916
Ebooks Everything You Need to Ace Math in One Big Fat Not...
157.69 MB 2018-09-01 11:41:55 1068 117
Non-English Notebook 2019 Hindi PDVD Rip 700mb CineVood Exclus...
702.85 MB 2019-04-12 18:12:09 553 301
h.264/x264 Saras.Notebook.2018.BDRip.x264-BiPOLAR[EtMovies]
867.77 MB 2018-05-24 20:24:59 397 394
h.264/x264 Notebook (2019) Hindi - 720p - HQ DVDScr - x264 - ...
1.37 GB 2019-04-12 18:47:05 393 336
Non-English Notebook (2019) Untouched PDVD CineVood Exclusive
2.78 GB 2019-04-12 14:54:30 291 101
Cam/TS Notebook (2019) Hindi 720p Pre-DVDRip x264 AAC - D...
909.66 MB 2019-04-13 01:36:47 253 115
Cam/TS Notebook (2019) Hindi Pre-DVDRip x264 AAC [Schola...
792.56 MB 2019-04-17 05:12:50 246 234
h.264/x264 Notebook (2019) Hindi - HQ DVDScr - x264 - 700MB -...
719.91 MB 2019-04-12 18:47:42 217 65
HD Saras.Notebook.2018.1080p.BluRay.x264-BiPOLAR[EtHD...
7.99 GB 2018-05-24 20:23:21 148 209

Loading...


Trackers:
udp://tracker.coppersurfer.tk:6969/announce

Notebook (2019) 720p Hindi Pre-DVDRip x264 Mp3 by Full4movies
Files
Notebook (2019) 720p Hindi Pre-DVDRip x264 Mp3 by Full4movies.mkv (1.37 GB)


Comments:
No comments still posted
Loading...
Powered by TT | Page Generated In 0.327101 secs.
| RSS Feed | Feed Info