[Login] or [Signup]


Warning! Use a VPN When Downloading Torrents!
Your IP Address is .   Location is
Your Internet Provider is tracking your torrent activity!  Hide your IP ADDRESS with a VPN!
We strongly recommend using ExpressVPN to anonymize your torrenting. 30 Day Money Back Guarantee!
Try it Now!
First Cams

Xvid/x264



Non-English

Site Friends
      ETTV

      WorldWide Torrents

      Free Tutorials

      Aiosearch


Loading...

Arrow S07E13 Star City Slayer AMZN WEBRip 1080p x265 DDP5.1 D0ct0rLew[SEV]


Download torrent:    
Info Hash:  d1f2179d5313094c67ffb8c47b5dc8441991f17d
Category:  TV  > HEVC/x265
Torrent language:  English  
Seeds | Leech:  129 | 67
Complete:   329
Health:   
Total Size:  1.89 GB
Added By:        SEV
Date Added:  15-04-2019 09:26:am | Last Edit:  15-04-2019 09:01:pm

IMDB
Arrow
Arrow Released 10 Oct 2012

Genre Action, Adventure, Crime, Drama, Mystery, Sci-Fi

Director N/A

Writer Greg Berlanti, Marc Guggenheim, Andrew Kreisberg

Actors Stephen Amell, David Ramsey, Emily Bett Rickards, Katie Cassidy

Plot Spoiled billionaire playboy Oliver Queen is missing and presumed dead when his yacht is lost at sea. He returns five years later a changed man, determined to clean up the city as a hooded vigilante armed with a bow.

Link https://www.imdb.com/title/tt2193021/?ref_=fn_al_tt_1

Last Updated 26-04-2019 15:07:32
7.7

Votes 376,700

Un système d'onglets en javascript
Description Trackers Files Comments Download




Media Information
Unique ID                                : 235921335208228320619099174925259415870 (0xB17CCBE0DA5E7A266278E8215982A13E)
Complete name                            :Arrow S07E13 Star City Slayer AMZN WEBRip 1080p x265 DDP5.1 D0ct0rLew[SEV].mkv
Format                                   : Matroska
Format version                           : Version 4
File size                                : 1.89 GiB
Duration                                 : 42 min 18 s
Overall bit rate                         : 6 383 kb/s
Encoded date                             : UTC 2019-04-14 21:36:14
Writing application                      : mkvmerge v29.0.0 ('Like It Or Not') 64-bit
Writing library                          : libebml v1.3.6 + libmatroska v1.4.9

Video
ID                                       : 2
Format                                   : HEVC
Format/Info                              : High Efficiency Video Coding
Format profile                           : Main [email protected]@Main
Codec ID                                 : V_MPEGH/ISO/HEVC
Duration                                 : 42 min 18 s
Bit rate                                 : 5 741 kb/s
Width                                    : 1 920 pixels
Height                                   : 1 080 pixels
Display aspect ratio                     : 16:9
Frame rate mode                          : Constant
Frame rate                               : 23.976 (24000/1001) FPS
Color space                              : YUV
Chroma subsampling                       : 4:2:0
Bit depth                                : 10 bits
Bits/(Pixel*Frame)                       : 0.115
Stream size                              : 1.70 GiB (90%)
Writing library                          : x265 3.0_RC+11-9a975542fe39:[Windows][MSVC 1900][64 bit] 10bit
Encoding settings                        : cpuid=1111039 / frame-threads=3 / numa-pools=8 / wpp / no-pmode / no-pme / no-psnr / no-ssim / log-level=2 / input-csp=1 / input-res=1920x1080 / interlace=0 / total-frames=60866 / level-idc=0 / high-tier=1 / uhd-bd=0 / ref=4 / no-allow-non-conformance / no-repeat-headers / annexb / no-aud / no-hrd / info / hash=0 / no-temporal-layers / open-gop / min-keyint=23 / keyint=250 / gop-lookahead=0 / bframes=8 / b-adapt=2 / b-pyramid / bframe-bias=0 / rc-lookahead=90 / lookahead-slices=4 / scenecut=40 / radl=0 / no-splice / no-intra-refresh / ctu=64 / min-cu-size=8 / rect / amp / max-tu-size=32 / tu-inter-depth=3 / tu-intra-depth=3 / limit-tu=0 / rdoq-level=2 / dynamic-rd=0.00 / no-ssim-rd / signhide / no-tskip / nr-intra=0 / nr-inter=0 / no-constrained-intra / no-strong-intra-smoothing / max-merge=3 / limit-refs=3 / limit-modes / me=3 / subme=7 / merange=92 / temporal-mvp / weightp / no-weightb / no-analyze-src-pics / deblock=0:0 / sao / no-sao-non-deblock / rd=4 / no-early-skip / rskip / no-fast-intra / no-tskip-fast / no-cu-lossless / no-b-intra / no-splitrd-skip / rdpenalty=0 / psy-rd=1.00 / psy-rdoq=1.00 / no-rd-refine / no-lossless / cbqpoffs=0 / crqpoffs=0 / rc=crf / crf=19.5 / qcomp=0.52 / qpstep=4 / stats-write=0 / stats-read=0 / ipratio=1.40 / pbratio=1.30 / aq-mode=3 / aq-strength=0.90 / cutree / zone-count=0 / no-strict-cbr / qg-size=32 / no-rc-grain / qpmax=69 / qpmin=0 / no-const-vbv / sar=0 / overscan=0 / videoformat=5 / range=0 / colorprim=2 / transfer=2 / colormatrix=2 / chromaloc=0 / display-window=0 / max-cll=0,0 / min-luma=0 / max-luma=1023 / log2-max-poc-lsb=8 / vui-timing-info / vui-hrd-info / slices=1 / no-opt-qp-pps / no-opt-ref-list-length-pps / no-multi-pass-opt-rps / scenecut-bias=0.05 / no-opt-cu-delta-qp / no-aq-motion / no-hdr / no-hdr-opt / no-dhdr10-opt / no-idr-recovery-sei / analysis-reuse-level=5 / scale-factor=0 / refine-intra=0 / refine-inter=0 / refine-mv=0 / refine-ctu-distortion=0 / no-limit-sao / ctu-info=0 / no-lowpass-dct / refine-analysis-type=0 / copy-pic=1 / max-ausize-factor=1.0 / no-dynamic-refine / no-single-sei / no-hevc-aq / qp-adaptation-range=1.00
Language                                 : English
Default                                  : Yes
Forced                                   : No

Audio
ID                                       : 3
Format                                   : E-AC-3
Format/Info                              : Enhanced AC-3
Commercial name                          : Dolby Digital Plus
Codec ID                                 : A_EAC3
Duration                                 : 42 min 18 s
Bit rate mode                            : Constant
Bit rate                                 : 640 kb/s
Channel(s)                               : 6 channels
Channel layout                           : L R C LFE Ls Rs
Sampling rate                            : 48.0 kHz
Frame rate                               : 31.250 FPS (1536 SPF)
Compression mode                         : Lossy
Stream size                              : 194 MiB (10%)
Language                                 : English
Service kind                             : Complete Main
Default                                  : Yes
Forced                                   : No

Text
ID                                       : 1
Format                                   : UTF-8
Codec ID                                 : S_TEXT/UTF8
Codec ID/Info                            : UTF-8 Plain Text
Duration                                 : 41 min 49 s
Bit rate                                 : 83 b/s
Count of elements                        : 664
Stream size                              : 25.6 KiB (0%)
Language                                 : English
Default                                  : Yes
Forced                                   : No

We have no issue with individuals posting or re-uploading our torrents on a platform we aren't on. However, if this is something you'd like to do, please do so in a 'as-is' format. We ask that you do not create a new torrent, include all descriptions you see above including the SEV logo, tags, notes and screenshots.
If you'd like to become a permanent poster on a website we don't post to, feel free to get in contact with a Sublime Encoded Video member.

We are recruiting/training new members for SEV & seedbox providers as well as people to help out with subtitles.
As you already know, we deliver quality, so you know the standard.
If you're interested, feel free to contact any of the team members.


Similar Torrents
Type Name Size Added S L
x264 Arrow.S07E15.HDTV.x264-SHiTSPREAD[ettv]
249.77 MB 2019-03-12 04:06:46 11155 2686
x264 Arrow.S07E16.HDTV.x264-SVA[ettv]
266.02 MB 2019-03-19 03:06:46 9031 1973
x264 Arrow.S07E14.HDTV.x264-SVA[ettv]
223.75 MB 2019-03-05 04:08:11 7612 1936
HD Arrow.S07E13.HDTV.x264-SVA[ettv]
213.11 MB 2019-02-12 04:03:20 7332 1695
x264 Arrow.S06E22.HDTV.x264-SVA[ettv]
267.42 MB 2018-05-11 05:53:46 7216 645
x264 Arrow.S07E19.HDTV.x264-SVA[ettv]
261.76 MB 2019-04-23 04:10:20 6162 1329
x264 Arrow.S07E17.HDTV.x264-SVA[ettv]
234.51 MB 2019-03-26 03:07:11 5557 1559
x264 Arrow.S07E09.HDTV.x264-SVA[ettv]
295.61 MB 2018-12-11 04:12:58 5398 1091
x264 Arrow.S07E12.HDTV.x264-SVA[ettv]
272.35 MB 2019-02-05 04:06:56 5351 1676
x264 Arrow.S06E16.HDTV.x264-SVA[ettv]
249.29 MB 2018-03-30 05:50:04 5307 5267

Loading...


Trackers:
udp://tracker.leechers-paradise.org:6969/announce

This Torrent also has backup trackers
URLSeedersLeechersCompleted
http://tracker3.itzmx.com:6961/announce000
http://open.acgnxtracker.com:80/announce000
http://explodie.org:6969/announce000
http://0d.kebhana.mx:443/announce000

Arrow S07E13 Star City Slayer AMZN WEBRip 1080p x265 DDP5.1 D0ct0rLew[SEV]
Files
Arrow S07E13 Star City Slayer AMZN WEBRip 1080p x265 DDP5.1 D0ct0rLew[SEV].mkv (1.89 GB)


Comments:
No comments still posted
Loading...
Powered by TT | Page Generated In 0.685806 secs.
| RSS Feed | Feed Info