[Login] or [Signup]


Warning! Use a VPN When Downloading Torrents!
Your IP Address is .   Location is
Your Internet Provider is tracking your torrent activity!  Hide your IP ADDRESS with a VPN!
We strongly recommend using ExpressVPN to anonymize your torrenting. 30 Day Money Back Guarantee!
Try it Now!
First Cams

Xvid/x264



Non-English

Site Friends
      ETTV

      WorldWide Torrents

      Free Tutorials

      Aiosearch


Loading...

Avengers Infinity War (2018) x 800 (1080p) 5.1 - 2.0 x264 Phun Psyz


Download torrent:    
Info Hash:  988db7e8ffff484d91451af79e523d4798396f7b
Category:  Movies  > HD
Torrent language:  English  
Seeds | Leech:  275 | 121
Complete:   652
Health:   
Total Size:  2.84 GB
Added By:        phunpsyz
Date Added:  15-04-2019 06:21:am | Last Edit:  15-04-2019 06:18:pm

IMDB
Avengers: Infinity War
Avengers: Infinity War Released 27 Apr 2018

Genre Action, Adventure, Sci-Fi

Director Anthony Russo, Joe Russo

Writer Christopher Markus (screenplay by), Stephen McFeely (screenplay by), Stan Lee (based on the Marvel comics by), Jack Kirby (based on the Marvel comics by), Joe Simon (Captain America created by), Jack Kirby (Captain America created by), Steve Englehart (Star-Lord created by), Steve Gan (Star-Lord created by), Bill Mantlo (Rocket Raccoon created by), Keith Giffen (Rocket Raccoon created by), Jim Starlin (Thanos, Gamora and Drax created by), Stan Lee (Groot created by), Larry Lieber (Groot created by), Jack Kirby (Groot created by), Steve Englehart (Mantis created by), Don Heck (Mantis created by)

Actors Robert Downey Jr., Chris Hemsworth, Mark Ruffalo, Chris Evans

Plot The Avengers and their allies must be willing to sacrifice all in an attempt to defeat the powerful Thanos before his blitz of devastation and ruin puts an end to the universe.

Link http://www.imdb.com/title/tt4154756

Last Updated 26-04-2019 14:45:52
8.5

Votes 612,147

Un système d'onglets en javascript
Description Trackers Files Comments Download
www.imdb.com/title/tt4154756/

The Avengers and their allies must be willing to sacrifice all in an attempt to defeat the powerful Thanos before his blitz of devastation and ruin puts an end to the universe.

Source: FGT (BD)







Format                      : MPEG-4
Format profile              : Base Media / Version 2
Codec ID                    : mp42 (isom/iso2/avc1/mp41)
File size                   : 2.84 GiB
Duration                    : 2 h 29 min
Overall bit rate mode       : Variable
Overall bit rate            : 2 723 kb/s
Writing application         : HandBrake 1.2.0 2018121700

Video
ID                          : 1
Format                      : AVC
Format/Info                 : Advanced Video Codec
Format profile              : [email protected]
Format settings             : CABAC / 1 Ref Frames
Format settings, CABAC      : Yes
Format settings, ReFrames   : 1 frame
Codec ID                    : avc1
Codec ID/Info               : Advanced Video Coding
Duration                    : 2 h 29 min
Bit rate                    : 2 234 kb/s
Width                       : 1 920 pixels
Height                      : 800 pixels
Display aspect ratio        : 2.40:1
Frame rate                  : 23.976 (24000/1001) FPS
Color space                 : YUV
Chroma subsampling          : 4:2:0
Bit depth                   : 8 bits
Scan type                   : Progressive
Bits/(Pixel*Frame)          : 0.061
Stream size                 : 2.33 GiB (82%)
Writing library             : x264 core 157 r2935 545de2f

Audio #1
ID                          : 2
Format                      : AC-3
Format/Info                 : Audio Coding 3
Commercial name             : Dolby Digital
Codec ID                    : ac-3
Duration                    : 2 h 29 min
Bit rate mode               : Constant
Bit rate                    : 320 kb/s
Channel(s)                  : 6 channels
Channel layout              : L R C LFE Ls Rs
Sampling rate               : 48.0 kHz
Frame rate                  : 31.250 FPS (1536 SPF)
Bit depth                   : 16 bits
Compression mode            : Lossy
Stream size                 : 342 MiB (12%)
Title                       : Surround
Language                    : English

Audio #2
ID                          : 3
Format                      : AAC LC
Format/Info                 : Advanced Audio Codec Low Complexity
Codec ID                    : mp4a-40-2
Duration                    : 2 h 29 min
Bit rate mode               : Constant
Bit rate                    : 160 kb/s
Channel(s)                  : 2 channels
Channel layout              : L R
Sampling rate               : 48.0 kHz
Frame rate                  : 46.875 FPS (1024 SPF)
Compression mode            : Lossy
Stream size                 : 171 MiB (6%)
Title                       : Stereo
Language                    : English

Text
Language                    : English
Default                     : Yes
Forced                      : No
Language                    : Spanish
Language                    : French
Default                     : No
Forced                      : No


Similar Torrents
Type Name Size Added S L
Cam/TS Avengers Endgame 2019 NEW 720p HDCAM-1XBET
3.74 GB 2019-04-24 18:29:43 63918 64566
HD Avengers.Infinity.War.2018.1080p.WEB-DL.H264.AC3-E...
5.13 GB 2018-07-30 16:52:45 54680 21551
Cam/TS Avengers Infinity War 2018 720p TS x264 AAC TiTAN
2.80 GB 2018-05-11 05:24:05 25338 5050
Divx/Xvid Avengers.Infinity.War.2018.HDRip.XviD.AC3-EVO
1.61 GB 2018-07-30 17:13:53 23654 11636
HD Avengers.Infinity.War.2018.1080p.WEB-DL.DD5.1.H264...
5.13 GB 2018-07-30 20:56:58 22257 5189
Cam/TS Avengers Endgame 2019 720p HDCAM-xBay
2.76 GB 2019-04-25 08:15:20 19700 10590
HD Avengers.Infinity.War.2018.720p.WEB-DL.H264.AC3-EV...
4.60 GB 2018-07-30 17:06:39 18622 6729
Cam/TS Avengers Endgame 2019 NEW HDCAM x264 AC3-ETRG
1.27 GB 2019-04-25 13:17:39 12733 6876
Cam/TS Avengers Infinity War 2018 NEW 720p HD-TS X264-CPG
3.43 GB 2018-05-21 21:24:07 11782 5315
h.264/x264 Avengers.Infinity.War.2018.WEB-DL.x264-FGT
1.42 GB 2018-07-30 21:01:57 9398 3656

Loading...


Trackers:
udp://tracker.opentrackr.org:1337/announce

This Torrent also has backup trackers
URLSeedersLeechersCompleted
http://explodie.org:6969/announce000
http://open.acgtracker.com:1096/announce000

Avengers Infinity War (2018) x 800 (1080p) 5.1 - 2.0 x264 Phun Psyz
Files
Avengers Infinity War (2018) x 800 (1080p) 5.1 - 2.0 x264 Phun Psyz.mp4 (2.84 GB)


Comments:
No comments still posted
Loading...
Powered by TT | Page Generated In 0.702606 secs.
| RSS Feed | Feed Info