[Login] or [Signup]


Warning! Use a VPN When Downloading Torrents!
Your IP Address is .   Location is
Your Internet Provider is tracking your torrent activity!  Hide your IP ADDRESS with a VPN!
We strongly recommend using ExpressVPN to anonymize your torrenting. 30 Day Money Back Guarantee!
Try it Now!
First Cams

Xvid/x264



Non-English

Site Friends
      ETTV

      WorldWide Torrents

      Free Tutorials

      Aiosearch


Loading...

NTT Indycar Series 2019 Acura Grand Prix of Long Beach HDTV x264 720


Download torrent:    
Info Hash:  f233bea030102531d862d6e3aa331d0b9d6a11b7
Category:  TV  > Sports
Torrent language:  English  
Seeds | Leech:  82 | 54
Complete:   243
Health:   
Total Size:  2.84 GB
Added By:        HackRF
Date Added:  15-04-2019 03:12:am | Last Edit:  15-04-2019 03:59:pm

Un système d'onglets en javascript
Description Trackers Files Comments Download
NTT IndyCar Series 2019


Acura Grand Prix of Long Beach
Streets of Long Beach - Long Beach, CA
Apr14 4:42 PM ET







General
Complete name                            : NTT Indycar Series 2019 Acura Grand Prix of Long Beach HDTV x264 720.mkv
Format                                   : Matroska
Format version                           : Version 4 / Version 2
File size                                : 2.84 GiB
Duration                                 : 1 h 36 min
Overall bit rate                         : 4 200 kb/s
Encoded date                             : UTC 2019-04-14 23:51:07
Writing application                      : mkvmerge v15.0.0 ('Duel with the Devil') 64-bit
Writing library                          : libebml v1.3.5 + libmatroska v1.4.5

Video
ID                                       : 1
Format                                   : AVC
Format/Info                              : Advanced Video Codec
Format profile                           : [email protected]
Format settings, CABAC                   : Yes
Format settings, RefFrames               : 5 frames
Codec ID                                 : V_MPEG4/ISO/AVC
Duration                                 : 1 h 36 min
Bit rate                                 : 3 813 kb/s
Width                                    : 1 280 pixels
Height                                   : 720 pixels
Display aspect ratio                     : 16:9
Frame rate mode                          : Constant
Frame rate                               : 59.940 (59940/1000) FPS
Original frame rate                      : 59.940 (60000/1001) FPS
Color space                              : YUV
Chroma subsampling                       : 4:2:0
Bit depth                                : 8 bits
Scan type                                : Progressive
Bits/(Pixel*Frame)                       : 0.069
Stream size                              : 2.58 GiB (91%)
Writing library                          : x264 core 148 r2744 b97ae06
Default                                  : Yes
Forced                                   : No

Audio
ID                                       : 2
Format                                   : AC-3
Format/Info                              : Audio Coding 3
Format settings, Endianness              : Big
Codec ID                                 : A_AC3
Duration                                 : 1 h 36 min
Bit rate mode                            : Constant
Bit rate                                 : 384 kb/s
Channel(s)                               : 6 channels
Channel positions                        : Front: L C R, Side: L R, LFE
Sampling rate                            : 48.0 kHz
Frame rate                               : 31.250 FPS (1536 SPF)
Bit depth                                : 16 bits
Compression mode                         : Lossy
Stream size                              : 266 MiB (9%)
Language                                 : new
Service kind                             : Complete Main
Default                                  : Yes
Forced                                   : No


Similar Torrents
Type Name Size Added S L
Sports NTT Indycar Series 2019 Honda Indy Grand Prix of A...
2.41 GB 2019-04-08 02:53:32 142 66

Loading...


Trackers:
udp://tracker.torrent.eu.org:451/announce

NTT Indycar Series 2019 Acura Grand Prix of Long Beach HDTV x264 720
Files
Downloaded From.txt (121.00 B)
indycar.txt (5.49 kB)
NTT Indycar Series 2019 Acura Grand Prix of Long Beach HDTV x264 720.mkv (2.84 GB)


Comments:
No comments still posted
Loading...
Powered by TT | Page Generated In 0.373689 secs.
| RSS Feed | Feed Info