[Login] or [Signup]


Warning! Use a VPN When Downloading Torrents!
Your IP Address is .   Location is
Your Internet Provider is tracking your torrent activity!  Hide your IP ADDRESS with a VPN!
We strongly recommend using ExpressVPN to anonymize your torrenting. 30 Day Money Back Guarantee!
Try it Now!
First Cams

Xvid/x264



Non-English

Site Friends
      ETTV

      WorldWide Torrents

      Free Tutorials

      Aiosearch


Loading...

Exodus Gods and Kings (2014) x 1600 (2160p) HDR 5.1 x265 10bit Phun Psyz


Download torrent:    
Info Hash:  38d62f8c1d60b8cd25bba0c75a13a7b28e7b3960
Category:  Movies  > 4K
Torrent language:  English  
Seeds | Leech:  274 | 208
Complete:   635
Health:   
Total Size:  4.73 GB
Added By:        phunpsyz
Date Added:  14-04-2019 10:30:pm | Last Edit:  15-04-2019 01:57:pm

IMDB
Exodus: Gods and Kings
Exodus: Gods and Kings Released 12 Dec 2014

Genre Action, Adventure, Drama, Fantasy

Director Ridley Scott

Writer Adam Cooper, Bill Collage, Jeffrey Caine, Steven Zaillian

Actors Christian Bale, Joel Edgerton, John Turturro, Aaron Paul

Plot The defiant leader Moses rises up against Egyptian Pharaoh Ramses II, setting six hundred thousand slaves on a monumental journey of escape from Egypt and its terrifying cycle of deadly plagues.

Link http://www.imdb.com/title/tt1528100

Last Updated 26-04-2019 15:17:30
6.0

Votes 149,724

Un système d'onglets en javascript
Description Trackers Files Comments Download
www.imdb.com/title/tt1528100/

The defiant leader Moses rises up against Egyptian Pharaoh Ramses II, setting six hundred thousand slaves on a monumental journey of escape from Egypt and its terrifying cycle of deadly plagues.

Source: Coaster (BD)







Format                      : Matroska
Format version              : Version 4
File size                   : 4.73 GiB
Duration                    : 2 h 29 min
Overall bit rate            : 4 536 kb/s
Writing application         : HandBrake 1.2.0 2018121700

Video
ID                          : 1
Format                      : HEVC
Format/Info                 : High Efficiency Video Coding
Format profile              : Main [email protected]@High
Codec ID                    : V_MPEGH/ISO/HEVC
Duration                    : 2 h 29 min
Bit rate                    : 4 126 kb/s
Width                       : 3 840 pixels
Height                      : 1 600 pixels
Display aspect ratio        : 2.40:1
Frame rate mode             : Constant
Frame rate                  : 23.976 (24000/1001) FPS
Color space                 : YUV
Chroma subsampling          : 4:2:0
Bit depth                   : 10 bits
Bits/(Pixel*Frame)          : 0.028
Stream size                 : 4.30 GiB (91%)
Writing library             : x265 2.9:[Windows][GCC 7.1.0][64 bit] 10bit
Color primaries             : BT.2020
Transfer characteristics    : PQ
Matrix coefficients         : BT.2020 non-constant

Audio
ID                          : 2
Format                      : AC-3
Format/Info                 : Audio Coding 3
Commercial name             : Dolby Digital
Codec ID                    : A_AC3
Duration                    : 2 h 29 min
Bit rate mode               : Constant
Bit rate                    : 320 kb/s
Channel(s)                  : 6 channels
Channel layout              : L R C LFE Ls Rs
Sampling rate               : 48.0 kHz
Frame rate                  : 31.250 FPS (1536 SPF)
Bit depth                   : 16 bits
Compression mode            : Lossy
Stream size                 : 342 MiB (7%)
Title                       : Surround
Language                    : English

Text
Language                    : English
Language                    : Spanish
Language                    : French
Language                    : Danish
Language                    : Dutch
Language                    : Finnish
Language                    : German
Language                    : Italian
Language                    : Japanese
Language                    : Japanese
Language                    : Norwegian
Language                    : Swedish
Language                    : English
Language                    : French
Language                    : Danish
Language                    : Dutch
Language                    : Finnish
Language                    : German
Language                    : Italian
Language                    : Japanese
Language                    : Norwegian
Language                    : Swedish
Default                     : No
Forced                      : No


Similar Torrents
Type Name Size Added S L
HD Exodus Gods and Kings (2014) x 800 (1080p) 5.1 - 2...
2.99 GB 2019-04-14 04:29:56 146 33

Loading...


Trackers:
udp://tracker.opentrackr.org:1337/announce

This Torrent also has backup trackers
URLSeedersLeechersCompleted
http://explodie.org:6969/announce000
http://open.acgtracker.com:1096/announce000

Exodus Gods and Kings (2014) x 1600 (2160p) HDR 5.1 x265 10bit Phun Psyz
Files
Exodus Gods and Kings (2014) x 1600 (2160p) HDR 5.1 x265 10bit Phun Psyz.mkv (4.73 GB)


Comments:
No comments still posted
Loading...
Powered by TT | Page Generated In 0.672711 secs.
| RSS Feed | Feed Info