[Login] or [Signup]

First Cams

Xvid/x264



Non-English

Loading...

Norm of the North 720p BluRay x264[MovieDunya]


Complete Name :Norm of the North 720p BluRay x264[MovieDunya]
Download torrent:    Norm of the North 720p BluRay x264[MovieDunya].torrent
Info Hash:967533d90a7d8a5afe1b7ff3b35be2850c9729d7
Category:Anime  > All
Torrent language:English  
Seeds | Leech:0 | 2
Complete: 0
Health:
Total Size:1.19 GB
Downloaded:10 Times
Added By:      MovieDunya
Date Added:03-07-2018 01:18:pm | Last Edit:  13-09-2018 04:52:pm

 

Main Technical Comments


General

720p BluRay x264[MovieDunya].mkv
Format                                   : Matroska
Format version                           : Version 4 / Version 2
File size                                : 1.19 GiB
Duration                                 : 1 h 30 min
Overall bit rate                         : 1 884 kb/s
Movie name                               : Norm of the North 720p BluRay x264[MovieDunya]

Video
ID                                       : 1
Format                                   : AVC
Format/Info                              : Advanced Video Codec
Format profile                           : [email protected]
Format settings                          : CABAC / 5 Ref Frames
Format settings, CABAC                   : Yes
Format settings, RefFrames               : 5 frames
Codec ID                                 : V_MPEG4/ISO/AVC
Duration                                 : 1 h 30 min
Bit rate                                 : 1 600 kb/s
Width                                    : 1 280 pixels
Height                                   : 692 pixels
Display aspect ratio                     : 1.85:1
Frame rate mode                          : Constant
Frame rate                               : 48.000 FPS
Color space                              : YUV
Chroma subsampling                       : 4:2:0
Bit depth                                : 8 bits
Scan type                                : Progressive
Bits/(Pixel*Frame)                       : 0.038
Stream size                              : 1 011 MiB (83%)
Title                                    : Norm of the North 720p BluRay x264[MovieDunya]
Writing library                          : x264 core 155 r2901 7d0ff22

Default                                  : Yes
Forced                                   : No

ID                                       : 2
Format                                   : AC-3
Format/Info                              : Audio Coding 3
Codec ID                                 : A_AC3
Duration                                 : 1 h 30 min
Bit rate mode                            : Constant
Bit rate                                 : 320 kb/s
Channel(s)                               : 6 channels
Channel positions                        : Front: L C R, Side: L R, LFE
Sampling rate                            : 48.0 kHz
Frame rate                               : 31.250 FPS (1536 SPF)
Bit depth                                : 16 bits
Compression mode                         : Lossy
Delay relative to video                  : -5 ms
Stream size                              : 207 MiB (17%)
Title                                    : Norm of the North 720p BluRay x264[MovieDunya]
Language                                 : English
Service kind                             : Complete Main
Default                                  : Yes
Forced                                   : No










........................................................................


Loading...


Trackers:
udp://tracker.pirateparty.gr:6969/announce

Norm of the North 720p BluRay x264[MovieDunya]
Files
Norm of the North 720p BluRay x264[MovieDunya].mkv1.19 GB


Comments:
No comments still posted
Loading...
Powered by TT | Page Generated In 0.041827 secs.
| RSS Feed | Feed Info