[Login] or [Signup]


Warning! Use a VPN When Downloading Torrents!
Your IP Address is .   Location is
Your Internet Provider is tracking your torrent activity!  Hide your IP ADDRESS with a VPN!
We strongly recommend using ExpressVPN to anonymize your torrenting. 30 Day Money Back Guarantee!
Try it Now!
First Cams

Xvid/x264



Non-English

Site Friends
      ETTV

      WorldWide Torrents

      Free Tutorials

      Aiosearch


Loading...

Captain Marvel (2019) 720p Hindi Dubbed (Cleaned) HDTC x264 Mp3 by Full4movies


Download torrent:    
Info Hash:  a1a86d8bf8f011fab17913f5cc5532452878759e
Category:  Movies  > Cam/TS
Torrent language:  Hindi  
Seeds | Leech:  368 | 270
Complete:   436
Health:   
Total Size:  761.96 MB
Added By:        full4movies
Date Added:  25-03-2019 06:11:pm | Last Edit:  26-03-2019 09:14:am

IMDB
Captain Marvel
Captain Marvel Released 08 Mar 2019

Genre Action, Adventure, Sci-Fi

Director Anna Boden, Ryan Fleck

Writer Anna Boden (screenplay by), Ryan Fleck (screenplay by), Geneva Robertson-Dworet (screenplay by), Nicole Perlman (story by), Meg LeFauve (story by), Anna Boden (story by), Ryan Fleck (story by), Geneva Robertson-Dworet (story by)

Actors Brie Larson, Samuel L. Jackson, Ben Mendelsohn, Jude Law

Plot Carol Danvers becomes one of the universe's most powerful heroes when Earth is caught in the middle of a galactic war between two alien races.

Link http://www.imdb.com/title/tt4154664

Last Updated 23-04-2019 20:58:55
7.2

Votes 212,478

Un système d'onglets en javascript
Description Trackers Files Comments Download


General
Complete name                  : Captain Marvel (2019) 720p Hindi Dubbed (Cleaned) HDTC x264 Mp3 by Full4movies.mkv
Format                         : Matroska
Format version                 : Version 4
File size                      : 762 MiB
Duration                       : 1 h 52 min
Overall bit rate mode          : Variable
Overall bit rate               : 944 kb/s
Movie name                     : www.full4movies.me
Encoded date                   : UTC 2019-03-25 15:15:25
Writing application            : mkvmerge v6.9.1 ('Blue Panther') 32bit built on Apr 18 2014 18:15:44
Writing library                : libebml v1.3.0 + libmatroska v1.4.1

Video
ID                             : 1
Format                         : AVC
Format/Info                    : Advanced Video Codec
Format profile                 : [email protected]
Format settings                : CABAC / 4 Ref Frames
Format settings, CABAC         : Yes
Format settings, ReFrames      : 4 frames
Codec ID                       : V_MPEG4/ISO/AVC
Duration                       : 1 h 52 min
Bit rate                       : 842 kb/s
Width                          : 720 pixels
Height                         : 304 pixels
Display aspect ratio           : 2.35:1
Frame rate mode                : Constant
Frame rate                     : 29.970 (30000/1001) FPS
Color space                    : YUV
Chroma subsampling             : 4:2:0
Bit depth                      : 8 bits
Scan type                      : Progressive
Bits/(Pixel*Frame)             : 0.128
Stream size                    : 669 MiB (88%)
Writing library                : x264 core 157 r2935 545de2f
Language                       : English
Default                        : Yes
Forced                         : No

Audio
ID                             : 2
Format                         : MPEG Audio
Format version                 : Version 1
Format profile                 : Layer 3
Format settings                : Joint stereo / MS Stereo
Codec ID                       : A_MPEG/L3
Codec ID/Hint                  : MP3
Duration                       : 1 h 58 min
Bit rate mode                  : Variable
Bit rate                       : 96.0 kb/s
Channel(s)                     : 2 channels
Sampling rate                  : 44.1 kHz
Frame rate                     : 38.281 FPS (1152 SPF)
Compression mode               : Lossy
Stream size                    : 81.2 MiB (11%)
Writing library                : LAME3.99r
Encoding settings              : -m j -V 4 -q 3 -lowpass 15.1 --abr 96
Language                       : Hindi
Default                        : Yes
Forced                         : Yes

Screen Shoot


Similar Torrents
Type Name Size Added S L
Cam/TS Captain Marvel 2019 720p HDCAM-1XBET
2.45 GB 2019-03-07 23:27:39 13899 11945
Cam/TS Captain Marvel 2019 NEW HD-TS X264 AC3-SeeHD
2.15 GB 2019-03-25 11:10:30 9429 10670
Divx/Xvid Kapitan Marvel / Captain Marvel [2019] [MD] [HDCA...
699.87 MB 2019-03-13 11:33:54 7942 2303
Cam/TS Captain Marvel 2019.HDCAM.x264.AC3-ETRG
872.35 MB 2019-03-09 11:00:15 6836 4734
Cam/TS Captain.Marvel.2019.HDTC.x264 AC3-ETRG
1.01 GB 2019-04-22 11:00:09 6700 5670
Cam/TS Captain Marvel 2019.HDCAM.XViD.AC3-ETRG
1.29 GB 2019-03-08 10:33:21 6606 5670
Cam/TS Captain Marvel 2019 HC CAM YG
1.78 GB 2019-04-23 02:30:26 6029 6014
Cam/TS Captain Marvel 2019 HDTS XViD AC3-ETRG
1.31 GB 2019-03-28 22:02:44 5866 5677
Cam/TS Captain Marvel 2019 HDCAM x264 AC3 MP4KiNG
1,020.17 MB 2019-03-16 19:01:12 3877 2918
Cam/TS Captain Marvel 2019 HDTS x264 AC3-BloNGo
1.11 GB 2019-04-03 14:01:31 3776 1700

Loading...


Trackers:
udp://tracker.coppersurfer.tk:6969/announce

Captain Marvel (2019) 720p Hindi Dubbed (Cleaned) HDTC x264 Mp3 by Full4movies
Files
Captain Marvel (2019) 720p Hindi Dubbed (Cleaned) HDTC x264 Mp3 by Full4movies.mkv (761.96 MB)


Comments:
No comments still posted
Loading...
Powered by TT | Page Generated In 0.374474 secs.
| RSS Feed | Feed Info